<svg xmlns="http://www.w3.org/2000/svg">
<defs>
<font
   horiz-adv-x="2048"
   id="font3"
   horiz-origin-x="0"
   horiz-origin-y="0"
   vert-origin-x="45"
   vert-origin-y="90"
   vert-adv-y="90">
<!-- Century Schoolbook is a registered trademark of The Monotype Corporation plc. -->
<!-- Copyright: Copyright 2007 Adobe System Incorporated. All rights reserved. -->
<font-face
   font-family="CenturySchoolbook-Bold"
   units-per-em="2048"
   underline-position="-205"
   underline-thickness="102"
   id="font-face5" />
<missing-glyph
   horiz-adv-x="1536"
   d="M256,0l0,1280l1024,0l0,-1280M288,32l960,0l0,1216l-960,0z"
   id="missing-glyph7" />
<glyph
   unicode=" "
   horiz-adv-x="588"
   id="glyph9" />
<glyph
   unicode="!"
   horiz-adv-x="606"
   d="M346,432l-74,0C272,525 267,606 258,676C248,745 223,864 184,1033C152,1172 136,1264 136,1311C136,1375 152,1425 185,1462C217,1499 258,1517 309,1517C359,1517 400,1499 433,1462C465,1425 481,1375 481,1314C481,1275 464,1180 431,1031C392,858 369,738 360,671C351,604 346,524 346,432M310,318C358,318 399,301 432,267C465,233 482,192 482,144C482,96 465,55 432,21C399,-13 358,-30 311,-30C264,-30 223,-13 190,21C156,55 139,96 139,144C139,192 156,233 189,267C222,301 263,318 310,318z"
   id="glyph11" />
<glyph
   unicode="&quot;"
   horiz-adv-x="682"
   d="M164,751l-45,0l-99,389C8,1188 2,1230 2,1266C2,1318 14,1358 39,1385C64,1412 97,1426 139,1426C182,1426 216,1413 241,1387C266,1361 278,1324 278,1277C278,1246 271,1201 256,1140M567,751l-45,0l-99,389C411,1188 405,1230 405,1266C405,1318 417,1358 442,1385C467,1412 500,1426 542,1426C585,1426 619,1413 644,1387C669,1361 681,1324 681,1277C681,1246 674,1201 659,1140z"
   id="glyph13" />
<glyph
   unicode="#"
   horiz-adv-x="1176"
   d="M-22,1081l319,0l86,398l166,0l-85,-398l302,0l84,398l168,0l-85,-398l183,0l0,-168l-215,0l-69,-330l284,0l0,-169l-316,0l-85,-393l-166,0l84,393l-306,0l-81,-393l-169,0l83,393l-182,0l0,169l217,0l69,330l-286,0M431,913l-69,-330l303,0l69,330z"
   id="glyph15" />
<glyph
   unicode="$"
   horiz-adv-x="1176"
   d="M551,1520l104,0l0,-97C702,1423 758,1412 821,1391C884,1370 936,1334 977,1285C1018,1236 1039,1185 1039,1132C1039,1085 1024,1044 994,1011C964,978 929,961 889,961C853,961 823,974 798,999C773,1024 761,1055 761,1092C761,1116 772,1146 793,1181C812,1212 822,1235 822,1248C822,1268 808,1287 780,1305C752,1323 710,1333 655,1334l0,-499C805,769 909,707 968,650C1044,575 1082,487 1082,388C1082,283 1045,192 971,117C896,42 791,-5 655,-24l0,-244l-104,0l0,244C437,-24 342,5 265,62C188,119 149,195 149,288C149,343 164,386 194,419C224,452 261,468 306,468C349,468 383,455 410,428C437,401 450,366 450,323C450,266 427,222 382,190C365,178 354,169 351,164C347,159 345,153 345,146C345,128 358,112 384,98C420,78 476,67 551,64l0,524C429,643 347,689 304,725C261,760 228,804 204,857C179,910 167,968 167,1031C167,1134 202,1222 273,1295C343,1368 436,1410 551,1423M551,880l0,452C485,1325 432,1301 393,1261C353,1220 333,1174 333,1121C333,1023 406,943 551,880M655,550l0,-481C728,78 786,105 831,148C875,191 897,238 897,290C897,337 882,380 851,419C820,457 754,501 655,550z"
   id="glyph17" />
<glyph
   unicode="%"
   horiz-adv-x="1706"
   d="M423,1426C504,1426 573,1393 630,1326C686,1259 714,1171 714,1061C714,951 686,863 629,798C572,732 502,699 421,699C342,699 274,732 218,799C161,866 133,953 133,1060C133,1169 162,1257 219,1325C276,1392 344,1426 423,1426M423,1370C393,1370 371,1353 357,1319C338,1275 329,1171 329,1007C329,908 339,838 360,799C375,769 397,754 425,754C454,754 477,773 494,810C510,847 518,943 518,1096C518,1209 508,1285 488,1326C473,1355 452,1370 423,1370M1295,1395l83,0l-983,-1395l-83,0M1279,700C1361,700 1430,667 1487,600C1543,533 1571,445 1571,334C1571,224 1543,136 1486,71C1429,5 1359,-28 1278,-28C1199,-28 1131,6 1075,73C1018,140 990,226 990,333C990,442 1018,531 1075,599C1132,666 1200,700 1279,700M1280,644C1249,644 1227,627 1213,593C1194,548 1185,444 1185,280C1185,181 1195,112 1216,73C1232,43 1254,28 1281,28C1310,28 1333,47 1350,84C1367,121 1375,217 1375,370C1375,483 1365,559 1345,599C1330,629 1309,644 1280,644z"
   id="glyph19" />
<glyph
   unicode="&amp;"
   horiz-adv-x="1745"
   d="M782,866C900,668 1016,501 1130,364C1221,483 1267,576 1267,642C1267,676 1253,704 1226,725C1199,746 1150,757 1079,760l0,90l567,0l0,-90C1579,760 1528,748 1493,724C1458,699 1412,638 1356,539C1305,451 1254,371 1202,298C1255,243 1298,206 1331,189C1363,171 1394,162 1424,162C1465,162 1500,178 1528,211C1556,243 1572,294 1576,364l87,0C1662,237 1636,142 1584,79C1523,6 1438,-30 1330,-30C1277,-30 1225,-21 1176,-2C1127,17 1066,54 995,109C910,56 835,19 772,0C709,-20 640,-30 567,-30C430,-30 319,8 236,85C153,162 111,258 111,373C111,568 239,721 496,833C451,926 421,997 407,1046C393,1094 386,1140 386,1184C386,1277 423,1355 496,1420C569,1485 666,1517 785,1517C905,1517 997,1492 1061,1441C1125,1390 1157,1325 1157,1247C1157,1181 1130,1117 1077,1055C1023,992 925,929 782,866M740,947C817,982 870,1021 899,1064C928,1106 942,1160 942,1226C942,1292 928,1342 900,1376C872,1409 834,1426 786,1426C741,1426 704,1410 675,1379C646,1347 631,1304 631,1250C631,1173 667,1072 740,947M538,742C484,701 447,662 426,623C405,584 394,541 394,494C394,406 426,321 489,240C552,159 630,118 722,118C787,118 853,140 922,184C813,322 743,414 711,461C679,507 621,601 538,742z"
   id="glyph21" />
<glyph
   unicode="'"
   horiz-adv-x="494"
   d="M271,739l-45,0l-99,389C115,1176 109,1218 109,1254C109,1306 121,1346 146,1373C171,1400 204,1414 246,1414C289,1414 323,1401 348,1375C373,1349 385,1312 385,1265C385,1234 378,1189 363,1128z"
   id="glyph23" />
<glyph
   unicode="("
   horiz-adv-x="797"
   d="M719,1518l34,-59C648,1344 574,1224 531,1099C479,946 453,765 453,555C453,348 480,167 534,13C579,-115 652,-231 753,-334l-34,-62C511,-242 360,-84 267,79C185,222 144,383 144,563C144,688 163,801 200,902C237,1003 302,1110 397,1223C492,1336 599,1435 719,1518z"
   id="glyph25" />
<glyph
   unicode=")"
   horiz-adv-x="797"
   d="M88,1518C289,1373 438,1216 537,1047C620,904 661,742 661,562C661,352 605,167 494,8C382,-152 247,-287 88,-397l-34,61C125,-261 181,-185 221,-106C261,-28 293,67 317,179C341,290 353,418 353,561C353,788 322,983 259,1146C216,1258 147,1361 54,1456z"
   id="glyph27" />
<glyph
   unicode="*"
   horiz-adv-x="1024"
   d="M546,1052C577,1064 603,1077 624,1092C640,1103 665,1126 699,1163C738,1206 769,1233 792,1246C815,1258 839,1264 864,1264C904,1264 937,1252 962,1227C987,1202 1000,1170 1000,1131C1000,1092 987,1060 960,1035C933,1010 895,997 848,997C831,997 796,1000 743,1007C688,1014 652,1017 633,1017C616,1017 593,1014 563,1008C577,991 591,977 606,967C620,956 655,936 711,907C762,881 794,863 806,852C823,838 836,822 845,804C853,785 857,765 857,744C857,705 844,672 817,646C790,619 756,606 717,606C676,606 643,623 618,658C602,680 586,732 571,814C560,875 552,913 547,929C542,944 533,962 521,981C504,950 492,910 484,860C471,779 459,725 446,697C433,669 415,647 392,631C368,614 343,606 318,606C283,606 253,620 228,647C203,674 190,706 190,744C190,773 197,798 212,819C227,840 256,862 301,886C364,920 409,946 436,965C451,976 467,990 484,1008C457,1015 433,1019 413,1019C387,1019 340,1014 273,1004C238,999 214,997 202,997C152,997 113,1009 85,1034C57,1058 43,1090 43,1129C43,1169 55,1202 80,1227C105,1252 136,1265 174,1265C201,1265 227,1258 254,1243C271,1233 300,1208 342,1167C385,1125 414,1098 431,1087C448,1075 470,1063 498,1052C498,1082 496,1105 492,1121C487,1137 474,1166 453,1207C425,1260 407,1298 400,1320C393,1342 389,1362 389,1381C389,1422 401,1455 426,1480C451,1505 482,1517 521,1517C561,1517 593,1505 617,1482C641,1458 653,1427 653,1389C653,1368 650,1346 644,1325C637,1303 621,1265 595,1211C573,1165 560,1133 555,1116C550,1099 547,1077 546,1052z"
   id="glyph29" />
<glyph
   unicode="+"
   horiz-adv-x="1241"
   d="M60,774l466,0l0,467l187,0l0,-467l468,0l0,-187l-468,0l0,-464l-187,0l0,464l-466,0z"
   id="glyph31" />
<glyph
   unicode=","
   horiz-adv-x="569"
   d="M162,-355l-33,60C211,-248 269,-201 304,-155C338,-110 355,-70 355,-37C355,-17 347,-7 330,-7l-19,-3C297,-13 283,-15 270,-15C222,-15 181,2 148,36C114,70 97,112 97,161C97,206 114,246 149,280C184,313 226,330 275,330C333,330 383,306 426,258C469,210 490,149 490,76C490,-4 463,-82 408,-159C353,-236 271,-301 162,-355z"
   id="glyph33" />
<glyph
   unicode="-"
   horiz-adv-x="682"
   d="M31,566l626,0l0,-189l-626,0z"
   id="glyph35" />
<glyph
   unicode="."
   horiz-adv-x="569"
   d="M284,311C331,311 371,294 404,261C437,228 453,188 453,141C453,94 437,53 404,20C371,-13 331,-30 284,-30C238,-30 199,-13 166,20C133,53 116,94 116,141C116,188 133,228 166,261C199,294 238,311 284,311z"
   id="glyph37" />
<glyph
   unicode="/"
   horiz-adv-x="569"
   d="M606,1479l-453,-1479l-189,0l453,1479z"
   id="glyph39" />
<glyph
   unicode="0"
   horiz-adv-x="1176"
   d="M592,1426C677,1426 755,1401 824,1350C893,1299 951,1215 998,1100C1045,984 1068,849 1068,696C1068,541 1045,407 999,294C953,181 894,98 822,47C749,-4 670,-30 583,-30C453,-30 346,27 262,141C157,282 104,465 104,690C104,849 127,985 173,1099C218,1213 277,1296 349,1348C420,1400 501,1426 592,1426M764,659C764,951 745,1143 706,1234C678,1301 639,1334 588,1334C527,1334 483,1286 454,1191C425,1096 410,912 410,639C410,411 431,250 472,155C498,96 535,67 583,67C614,67 643,80 669,107C694,134 715,190 731,277C753,394 764,522 764,659z"
   id="glyph41" />
<glyph
   unicode="1"
   horiz-adv-x="1176"
   d="M197,1262C302,1269 390,1282 461,1302C532,1322 605,1352 679,1392l73,0l0,-1224C752,144 759,126 772,113C785,100 804,93 827,93l186,0l0,-93l-776,0l0,93l146,0C420,93 447,101 463,118C478,134 486,161 486,198l0,908C486,1127 480,1144 467,1155C454,1166 434,1172 408,1172l-211,0z"
   id="glyph43" />
<glyph
   unicode="2"
   horiz-adv-x="1176"
   d="M336,259l461,0C840,259 874,273 898,302C921,331 941,393 958,488l99,0l-30,-481l-908,0l0,86C168,171 264,290 408,451C535,594 618,700 655,771C706,867 732,964 732,1062C732,1147 713,1211 676,1255C638,1299 586,1321 521,1321C455,1321 400,1303 356,1268C312,1232 290,1195 290,1157C290,1142 295,1130 305,1121C315,1112 339,1102 376,1093C457,1072 497,1027 497,959C497,913 482,875 451,846C420,816 381,801 334,801C285,801 245,822 213,863C181,904 165,961 165,1036C165,1140 199,1227 267,1297C350,1383 464,1426 607,1426C735,1426 838,1390 917,1319C996,1248 1035,1160 1035,1055C1035,999 1025,948 1006,901C980,838 945,781 902,732C859,683 785,620 682,545C570,464 493,406 452,371C410,336 371,298 336,259z"
   id="glyph45" />
<glyph
   unicode="3"
   horiz-adv-x="1176"
   d="M730,751C839,722 922,674 977,608C1032,542 1060,463 1060,372C1060,252 1017,155 931,81C845,7 725,-30 570,-30C433,-30 326,2 251,67C176,131 138,213 138,313C138,374 153,421 184,456C215,490 254,507 302,507C345,507 381,493 409,466C436,439 450,405 450,364C450,309 422,265 365,232C341,218 327,208 322,202C317,195 314,187 314,177C314,153 330,131 361,111C407,82 459,67 517,67C592,67 651,92 694,143C737,194 758,272 758,379C758,484 738,562 699,613C659,664 608,689 547,689C532,689 513,687 489,682C466,678 448,676 436,676C417,676 403,681 392,692C381,702 376,716 376,735C376,756 382,771 393,782C404,792 422,797 445,797C454,797 468,796 485,794C506,791 524,790 537,790C597,790 644,811 678,852C711,893 728,961 728,1056C728,1151 709,1220 672,1263C635,1306 582,1327 514,1327C467,1327 432,1319 408,1304C383,1289 371,1272 371,1255C371,1246 373,1240 376,1235C379,1230 389,1221 405,1208C437,1183 458,1161 469,1143C479,1124 484,1103 484,1078C484,1038 471,1005 444,979C417,952 383,939 342,939C299,939 264,955 235,988C206,1020 191,1062 191,1113C191,1186 218,1252 272,1311C341,1388 443,1426 576,1426C665,1426 743,1411 808,1380C873,1349 922,1307 956,1254C989,1201 1006,1142 1006,1079C1006,1010 985,949 943,894C900,839 829,792 730,751z"
   id="glyph47" />
<glyph
   unicode="4"
   horiz-adv-x="1176"
   d="M779,1421l93,0l0,-966l200,0l0,-110l-200,0l0,-170C872,148 880,127 896,114C911,100 936,93 969,93l53,0l0,-93l-623,0l0,93l102,0C541,93 568,101 582,116C601,135 610,165 610,205l0,140l-514,0l0,135M610,1027l-414,-572l414,0z"
   id="glyph49" />
<glyph
   unicode="5"
   horiz-adv-x="1176"
   d="M264,1427C413,1397 547,1382 666,1382C758,1382 834,1392 893,1413C917,1422 931,1426 935,1426C944,1426 949,1419 949,1406C949,1362 932,1315 898,1265C863,1215 818,1177 763,1152C708,1127 638,1114 553,1114C489,1114 417,1121 336,1134l-22,-276C364,881 411,898 456,909C500,920 541,925 580,925C708,925 818,883 909,799C1000,714 1045,602 1045,461C1045,316 998,198 905,107C811,16 687,-30 534,-30C412,-30 314,2 241,66C167,130 130,207 130,298C130,357 146,405 179,440C211,475 252,493 301,493C344,493 380,479 409,452C437,424 451,390 451,350C451,321 444,297 429,276C414,255 386,234 344,213C313,198 298,183 298,169C298,146 313,126 342,108C385,82 436,69 495,69C568,69 627,99 670,159C713,218 735,320 735,465C735,587 714,676 673,732C631,788 578,816 513,816C483,816 451,810 416,799C381,788 344,771 304,748C303,696 297,660 285,641C272,622 255,612 232,612C213,612 197,618 186,629C174,640 168,653 168,670C168,696 186,735 221,786z"
   id="glyph51" />
<glyph
   unicode="6"
   horiz-adv-x="1176"
   d="M438,724C481,770 526,804 573,827C620,850 668,861 718,861C813,861 899,827 975,760C1051,693 1089,591 1089,456C1089,310 1046,193 960,104C874,15 762,-30 623,-30C476,-30 360,23 274,129C175,252 125,422 125,637C125,881 185,1078 305,1227C412,1360 544,1426 701,1426C802,1426 883,1401 944,1351C1005,1301 1035,1243 1035,1176C1035,1128 1020,1089 991,1058C962,1027 925,1012 881,1012C842,1012 810,1025 784,1052C758,1079 745,1112 745,1152C745,1182 754,1211 771,1240C781,1257 786,1270 786,1281C786,1298 779,1311 765,1322C751,1332 730,1337 701,1337C618,1337 555,1290 513,1197C461,1082 436,925 438,724M631,729C581,729 536,702 496,647C456,592 436,514 436,412C436,295 457,203 500,136C530,88 570,64 621,64C672,64 715,90 749,143C783,195 800,283 800,408C800,529 784,612 753,659C722,706 681,729 631,729z"
   id="glyph53" />
<glyph
   unicode="7"
   horiz-adv-x="1176"
   d="M225,1415l41,0C302,1402 345,1395 395,1395l688,0l0,-86C992,1126 930,990 897,903C864,815 838,726 820,637C801,547 785,421 772,258C764,163 754,100 743,69C731,38 712,13 687,-4C661,-21 630,-30 593,-30C547,-30 512,-17 487,10C462,37 450,76 450,127C450,156 454,189 462,226C473,283 491,342 515,403C548,489 593,586 649,693l252,451l-491,0C363,1144 331,1131 313,1104C295,1077 274,1015 250,916l-92,0z"
   id="glyph55" />
<glyph
   unicode="8"
   horiz-adv-x="1176"
   d="M783,825C902,774 984,719 1029,658C1074,597 1096,520 1096,427C1096,292 1052,182 963,97C874,12 754,-30 602,-30C455,-30 340,4 257,72C174,140 132,227 132,333C132,412 155,478 202,532C248,586 331,634 451,675C350,724 281,776 243,831C205,886 186,953 186,1030C186,1139 227,1232 309,1310C390,1387 493,1426 617,1426C740,1426 839,1396 914,1337C989,1278 1027,1209 1027,1130C1027,1072 1009,1019 974,970C939,921 875,873 783,825M706,853C760,894 797,932 816,968C835,1003 844,1047 844,1099C844,1170 822,1228 779,1272C736,1315 678,1337 607,1337C540,1337 487,1318 446,1279C405,1240 384,1190 384,1131C384,1075 404,1027 443,988C482,948 569,903 706,853M537,637C473,610 426,573 396,528C366,482 351,422 351,348C351,258 376,188 425,138C474,87 540,62 623,62C709,62 779,86 832,134C885,181 911,242 911,317C911,389 885,446 833,489C781,532 682,581 537,637z"
   id="glyph57" />
<glyph
   unicode="9"
   horiz-adv-x="1176"
   d="M779,667l-16,-13C676,578 586,540 493,540C404,540 326,568 258,625C169,698 125,802 125,936C125,1033 145,1120 185,1195C224,1270 280,1327 351,1367C422,1406 504,1426 598,1426C743,1426 857,1375 940,1272C1039,1148 1089,981 1089,772C1089,525 1029,325 908,172C801,37 669,-30 514,-30C415,-30 334,-4 269,48C204,100 172,158 172,222C172,271 187,312 217,344C247,375 284,391 328,391C367,391 400,377 427,350C453,323 466,289 466,248C466,226 457,198 440,163C430,143 425,127 425,115C425,100 431,89 443,80C460,68 482,62 509,62C553,62 596,81 638,118C680,155 714,217 739,305C764,393 778,514 779,667M597,1335C541,1335 496,1309 462,1256C427,1203 410,1112 410,982C410,869 426,790 457,743C488,696 529,672 581,672C638,672 686,701 726,758C765,815 785,901 785,1017C785,1134 763,1220 718,1274C685,1315 644,1335 597,1335z"
   id="glyph59" />
<glyph
   unicode=":"
   horiz-adv-x="569"
   d="M295,968C342,968 383,952 416,919C449,886 465,845 465,798C465,751 449,711 416,678C383,645 342,628 295,628C248,628 208,645 175,678C142,711 125,751 125,798C125,845 142,886 175,919C208,952 248,968 295,968M295,314C342,314 383,297 416,264C449,231 465,190 465,142C465,94 449,53 416,20C383,-13 342,-30 295,-30C248,-30 208,-13 175,20C142,53 125,94 125,142C125,190 142,231 175,264C208,297 248,314 295,314z"
   id="glyph61" />
<glyph
   unicode=";"
   horiz-adv-x="569"
   d="M294,972C341,972 382,955 416,922C449,888 466,847 466,800C466,753 449,712 416,679C382,645 341,628 294,628C247,628 206,645 173,679C139,712 122,753 122,800C122,847 139,888 172,922C205,955 246,972 294,972M161,-355l-33,62C205,-249 258,-209 288,-173C331,-119 353,-72 353,-33C353,-16 345,-8 330,-8C325,-8 315,-9 301,-11C287,-14 276,-15 267,-15C221,-15 181,2 148,37C114,71 97,112 97,160C97,206 114,246 149,280C184,313 225,330 274,330C333,330 384,306 426,259C468,211 489,150 489,75C489,24 477,-28 453,-81C428,-134 393,-183 346,-229C299,-275 238,-317 161,-355z"
   id="glyph63" />
<glyph
   unicode="&lt;"
   horiz-adv-x="1241"
   d="M1180,128l-1118,468l0,169l1118,469l0,-203l-864,-350l864,-349z"
   id="glyph65" />
<glyph
   unicode="="
   horiz-adv-x="1241"
   d="M62,1017l1118,0l0,-187l-1118,0M62,536l1118,0l0,-187l-1118,0z"
   id="glyph67" />
<glyph
   unicode="&gt;"
   horiz-adv-x="1241"
   d="M62,1234l1118,-468l0,-170l-1118,-468l0,203l864,350l-864,349z"
   id="glyph69" />
<glyph
   unicode="?"
   horiz-adv-x="1024"
   d="M507,431l-73,0l-1,70C433,574 439,634 451,683C462,731 485,786 518,848C565,933 593,994 603,1030C617,1079 624,1129 624,1180C624,1260 607,1321 574,1363C540,1405 496,1426 442,1426C400,1426 365,1415 337,1394C308,1373 294,1351 294,1330C294,1313 305,1297 326,1283C363,1259 387,1241 396,1229C412,1206 420,1180 420,1149C420,1108 405,1073 376,1043C347,1013 312,998 272,998C228,998 190,1015 159,1050C127,1084 111,1129 111,1185C111,1276 148,1354 221,1419C294,1484 389,1517 507,1517C623,1517 718,1482 793,1411C868,1340 905,1255 905,1155C905,1114 898,1074 885,1034C872,993 854,958 831,928C808,898 766,857 704,805C643,754 602,713 579,682C556,650 538,614 526,575C513,535 507,487 507,431M473,316C521,316 562,299 595,266C628,232 645,191 645,143C645,95 628,54 595,21C561,-13 520,-30 473,-30C426,-30 385,-13 352,21C318,54 301,95 301,143C301,191 318,232 352,266C385,299 426,316 473,316z"
   id="glyph71" />
<glyph
   unicode="@"
   horiz-adv-x="1530"
   d="M959,1123l208,8l-157,-537C993,535 985,493 985,466C985,444 992,427 1005,414C1018,401 1035,394 1056,394C1099,394 1152,418 1213,465C1274,512 1325,577 1364,660C1403,743 1423,831 1423,924C1423,1082 1373,1212 1272,1313C1171,1414 1038,1464 874,1464C732,1464 604,1431 491,1365C377,1299 286,1204 219,1080C151,956 117,821 117,675C117,477 180,315 306,190C431,64 592,1 787,1C947,1 1091,44 1218,131C1345,217 1436,331 1489,473l53,0C1473,305 1373,177 1242,88C1111,-1 958,-46 785,-46C565,-46 384,25 241,166C98,307 27,487 27,704C27,937 105,1130 261,1285C417,1440 615,1517 855,1517C982,1517 1092,1493 1184,1444C1275,1395 1346,1327 1396,1238C1446,1149 1471,1045 1471,928C1471,746 1413,596 1296,479C1198,381 1086,332 960,332C903,332 859,346 829,374C799,402 784,441 784,490C784,519 791,556 804,602C736,489 681,415 638,382C595,349 552,332 508,332C467,332 433,349 406,382C379,415 365,464 365,527C365,626 391,729 442,837C493,944 553,1024 622,1077C690,1129 752,1155 808,1155C841,1155 868,1144 889,1122C909,1100 923,1067 930,1022M831,1093C810,1093 788,1081 765,1058C721,1012 680,939 643,838C605,737 586,649 586,574C586,544 591,522 601,509C610,495 622,488 636,488C653,488 677,503 707,533C758,584 801,652 837,737C872,822 890,902 890,977C890,1021 885,1051 874,1068C863,1085 848,1093 831,1093z"
   id="glyph73" />
<glyph
   unicode="A"
   horiz-adv-x="1554"
   d="M833,1515l555,-1326C1404,152 1421,126 1440,113C1459,100 1483,93 1514,93l54,0l0,-93l-694,0l0,93l65,0C990,93 1026,99 1045,110C1064,121 1074,136 1074,155C1074,170 1070,187 1062,206l-115,274l-552,0l-54,-125C319,303 308,264 308,239C308,196 324,161 356,134C388,107 432,93 487,93l47,0l0,-93l-561,0l0,93l32,0C41,93 73,104 100,127C139,159 169,200 190,250l531,1265M672,1141l-236,-563l470,0z"
   id="glyph75" />
<glyph
   unicode="B"
   horiz-adv-x="1593"
   d="M86,1479l897,0C1122,1479 1232,1446 1312,1380C1392,1313 1432,1231 1432,1132C1432,1045 1400,972 1337,912C1273,852 1177,805 1050,772C1219,744 1339,698 1410,633C1481,568 1516,487 1516,390C1516,304 1491,230 1440,168C1404,124 1341,85 1252,51C1162,17 1056,0 934,0l-848,0l0,93l136,0C245,93 263,100 275,114C291,133 299,156 299,183l0,1145C299,1345 292,1359 277,1370C262,1381 236,1386 201,1386l-115,0M616,809l167,0C898,809 980,833 1029,881C1078,929 1103,1008 1103,1119C1103,1215 1079,1283 1032,1324C985,1365 895,1385 762,1385C699,1385 659,1379 642,1368C625,1357 616,1336 616,1306M616,717l0,-538C616,151 622,130 634,115C646,100 662,93 683,93l192,0C969,93 1043,119 1097,170C1150,221 1177,297 1177,396C1177,500 1148,580 1091,635C1034,690 950,717 841,717z"
   id="glyph77" />
<glyph
   unicode="C"
   horiz-adv-x="1593"
   d="M1266,1368l69,147l74,0l25,-593l-92,0C1313,1093 1259,1219 1180,1302C1101,1385 1010,1426 908,1426C796,1426 703,1373 630,1266C557,1159 520,991 520,761C520,518 560,337 641,219C706,126 801,80 927,80C1053,80 1159,126 1245,219C1307,286 1350,386 1375,517l90,0C1444,348 1379,215 1272,117C1165,19 1033,-30 876,-30C673,-30 504,42 367,185C230,328 161,511 161,734C161,982 240,1180 398,1328C533,1454 690,1517 871,1517C942,1517 1009,1506 1070,1484C1131,1461 1196,1423 1266,1368z"
   id="glyph79" />
<glyph
   unicode="D"
   horiz-adv-x="1706"
   d="M77,1479l796,0C1018,1479 1145,1448 1254,1387C1363,1326 1449,1238 1511,1125C1573,1012 1604,884 1604,742C1604,595 1576,467 1519,358C1462,249 1378,162 1265,97C1152,32 1031,0 902,0l-825,0l0,93l123,0C230,93 253,101 268,118C283,134 291,157 291,186l0,1114C291,1330 283,1352 267,1366C251,1379 224,1386 186,1386l-109,0M804,93C895,93 976,116 1047,162C1118,208 1169,271 1200,351C1231,430 1247,554 1247,721C1247,897 1229,1032 1192,1126C1155,1219 1104,1286 1041,1326C978,1365 885,1385 762,1385C695,1385 653,1379 636,1368C619,1357 610,1336 610,1306l0,-1119C610,154 617,130 631,115C644,100 666,93 696,93z"
   id="glyph81" />
<glyph
   unicode="E"
   horiz-adv-x="1554"
   d="M71,1479l1288,0l29,-517l-88,0C1279,1084 1254,1172 1223,1226C1192,1279 1151,1319 1101,1346C1050,1373 984,1386 903,1386l-202,0C670,1386 647,1380 633,1368C619,1355 612,1338 612,1316l0,-513l69,0C760,803 822,826 866,871C909,916 935,989 943,1090l90,0l0,-688l-90,0C937,516 912,596 868,643C824,690 758,713 669,713l-57,0l0,-547C612,142 619,125 633,115C654,100 685,93 725,93l178,0C1025,93 1125,132 1202,210C1279,288 1327,406 1346,563l90,0l-22,-563l-1343,0l0,93l133,0C234,93 257,101 273,116C288,131 296,152 296,178l0,1138C296,1340 288,1358 273,1369C257,1380 229,1386 188,1386l-117,0z"
   id="glyph83" />
<glyph
   unicode="F"
   horiz-adv-x="1479"
   d="M93,1479l1305,0l15,-510l-90,0C1307,1126 1270,1235 1213,1296C1155,1356 1066,1386 946,1386l-219,0C695,1386 672,1379 657,1366C642,1353 635,1334 635,1309l0,-495l80,0C874,814 966,909 991,1098l87,0l0,-683l-87,0C988,488 976,546 955,589C934,631 904,664 867,688C829,712 785,724 736,724l-101,0l0,-539C635,156 643,135 658,122C680,103 706,93 736,93l140,0l0,-93l-783,0l0,93l131,0C255,93 278,101 295,118C312,134 320,154 320,179l0,1130C320,1338 312,1358 296,1369C279,1380 246,1386 195,1386l-102,0z"
   id="glyph85" />
<glyph
   unicode="G"
   horiz-adv-x="1706"
   d="M1311,1517l71,0l36,-591l-89,0C1282,1103 1218,1230 1137,1309C1056,1387 965,1426 866,1426C790,1426 721,1403 659,1358C596,1313 547,1242 512,1146C477,1049 459,918 459,751C459,564 474,424 503,333C532,242 577,174 637,130C697,85 766,63 844,63C947,63 1027,92 1085,150C1143,208 1172,285 1172,381l0,135C1172,541 1166,559 1153,572C1140,584 1121,590 1096,590l-155,0l0,91l716,0l0,-91l-90,0C1535,590 1512,584 1498,571C1483,558 1476,539 1476,516l0,-545l-78,0l-125,249C1217,133 1152,70 1078,30C1003,-10 916,-30 815,-30C681,-30 559,2 449,66C339,130 254,218 194,329C134,440 104,574 104,730C104,960 175,1149 316,1296C457,1443 630,1517 835,1517C911,1517 979,1506 1038,1484C1097,1461 1160,1422 1227,1366z"
   id="glyph87" />
<glyph
   unicode="H"
   horiz-adv-x="1782"
   d="M111,1479l685,0l0,-93l-101,0C666,1386 645,1380 631,1367C617,1354 610,1337 610,1316l0,-485l564,0l0,460C1174,1326 1167,1351 1152,1365C1137,1379 1111,1386 1076,1386l-86,0l0,93l686,0l0,-93l-92,0C1549,1386 1524,1379 1509,1366C1494,1353 1487,1332 1487,1304l0,-1117C1487,154 1495,131 1510,116C1525,101 1546,93 1573,93l103,0l0,-93l-686,0l0,93l104,0C1123,93 1143,99 1156,112C1168,125 1174,146 1174,176l0,532l-564,0l0,-532C610,147 616,126 628,113C640,100 656,93 677,93l119,0l0,-93l-685,0l0,93l110,0C246,93 265,100 277,113C288,126 294,147 294,176l0,1115C294,1326 286,1350 271,1365C256,1379 231,1386 197,1386l-86,0z"
   id="glyph89" />
<glyph
   unicode="I"
   horiz-adv-x="909"
   d="M75,1479l758,0l0,-93l-137,0C667,1386 645,1380 632,1369C619,1357 612,1340 612,1317l0,-1145C612,145 619,126 633,115C651,100 677,93 711,93l122,0l0,-93l-758,0l0,93l116,0C231,93 259,100 276,113C292,126 300,146 300,172l0,1132C300,1332 293,1353 278,1366C263,1379 239,1386 207,1386l-132,0z"
   id="glyph91" />
<glyph
   unicode="J"
   horiz-adv-x="1327"
   d="M519,1479l727,0l0,-93l-87,0C1127,1386 1104,1379 1089,1365C1074,1350 1067,1328 1067,1299l0,-900C1067,274 1022,172 932,91C841,10 719,-30 565,-30C423,-30 308,9 219,86C130,163 85,251 85,352C85,430 108,494 153,543C198,592 252,616 317,616C372,616 419,598 457,561C495,524 514,478 514,425C514,374 500,334 473,303C446,272 413,257 374,257C365,257 353,258 338,261C317,266 303,268 294,268C276,268 263,265 256,258C249,251 245,239 245,224C245,185 265,152 304,124C357,87 420,69 493,69C574,69 638,96 684,149C730,202 753,278 753,379l0,920C753,1329 746,1351 732,1365C717,1379 696,1386 668,1386l-149,0z"
   id="glyph93" />
<glyph
   unicode="K"
   horiz-adv-x="1669"
   d="M93,1479l733,0l0,-93l-120,0C667,1386 641,1380 627,1368C613,1356 606,1336 606,1309l0,-653l488,562C1122,1251 1136,1281 1136,1308C1136,1331 1127,1349 1110,1361C1086,1378 1054,1386 1013,1386l-41,0l0,93l609,0l0,-93l-38,0C1488,1386 1438,1372 1391,1345C1322,1304 1254,1244 1185,1164l-188,-218l438,-756C1454,158 1476,135 1501,121C1534,102 1567,93 1600,93l58,0l0,-93l-726,0l0,93l74,0C1046,93 1075,98 1092,109C1109,120 1118,132 1118,146C1118,154 1115,162 1110,171l-316,543l-188,-219l0,-324C606,145 613,126 627,113C640,100 659,93 683,93l134,0l0,-93l-724,0l0,93l105,0C229,93 252,100 267,113C282,126 289,146 289,171l0,1145C289,1339 282,1357 268,1369C253,1380 230,1386 198,1386l-105,0z"
   id="glyph95" />
<glyph
   unicode="L"
   horiz-adv-x="1479"
   d="M85,1386l0,93l759,0l0,-93l-128,0C679,1386 654,1379 639,1365C624,1351 617,1328 617,1297l0,-1100C617,152 624,124 638,112C652,99 685,93 737,93l213,0C1029,93 1103,131 1172,206C1241,281 1293,402 1330,567l90,0l-34,-567l-1301,0l0,93l130,0C244,93 265,100 280,115C295,130 302,150 302,177l0,1131C302,1335 295,1355 280,1368C265,1380 239,1386 202,1386z"
   id="glyph97" />
<glyph
   unicode="M"
   horiz-adv-x="2009"
   d="M64,1479l596,0l335,-1002l336,1002l609,0l0,-93l-132,0C1775,1386 1753,1380 1741,1368C1728,1356 1722,1335 1722,1306l0,-1130C1722,147 1729,128 1742,117C1762,101 1789,93 1823,93l117,0l0,-93l-751,0l0,93l142,0C1357,93 1377,100 1391,115C1404,130 1411,150 1411,176l0,1210l-472,-1386l-88,0l-468,1398l0,-1081C383,255 403,204 442,165C481,125 538,101 613,93l0,-93l-549,0l0,93C133,99 187,123 226,166C264,209 283,263 283,329l0,956C283,1326 276,1353 262,1366C248,1379 221,1386 181,1386l-117,0z"
   id="glyph99" />
<glyph
   unicode="N"
   horiz-adv-x="1706"
   d="M75,1479l459,0l801,-1014l0,689C1335,1222 1316,1277 1277,1318C1238,1359 1183,1381 1112,1386l0,93l540,0l0,-93C1577,1378 1523,1356 1490,1319C1457,1282 1441,1227 1441,1154l0,-1154l-115,0l-912,1168l0,-809C414,266 435,199 478,157C520,114 572,93 635,93l25,0l0,-93l-597,0l0,93l41,0C163,93 212,116 252,163C292,210 312,270 312,343l0,956C267,1357 210,1386 141,1386l-66,0z"
   id="glyph101" />
<glyph
   unicode="O"
   horiz-adv-x="1706"
   d="M846,1517C985,1517 1114,1483 1232,1416C1349,1349 1441,1257 1507,1141C1572,1024 1605,893 1605,747C1605,525 1533,340 1388,192C1243,44 1063,-30 848,-30C705,-30 578,4 465,71C352,138 262,229 197,344C132,458 99,591 99,742C99,967 171,1152 314,1298C457,1444 635,1517 846,1517M852,1421C773,1421 704,1399 646,1356C587,1312 541,1241 507,1144C472,1047 455,913 455,744C455,566 471,431 503,340C534,248 580,180 641,136C702,92 772,70 853,70C972,70 1068,121 1139,224C1210,326 1246,504 1246,757C1246,934 1231,1068 1200,1157C1169,1246 1124,1312 1063,1356C1002,1399 932,1421 852,1421z"
   id="glyph103" />
<glyph
   unicode="P"
   horiz-adv-x="1554"
   d="M127,1479l866,0C1140,1479 1258,1440 1347,1361C1436,1282 1481,1186 1481,1072C1481,985 1455,910 1404,845C1352,780 1283,732 1196,703C1109,674 1022,659 937,659l-274,0l0,-482C663,150 671,130 686,115C701,100 721,93 745,93l170,0l0,-93l-788,0l0,93l132,0C288,93 311,100 326,115C341,130 348,150 348,177l0,1127C348,1329 340,1349 325,1364C310,1379 291,1386 269,1386l-142,0M663,750l183,0C910,750 967,764 1017,791C1066,818 1102,852 1123,891C1144,930 1154,993 1154,1080C1154,1200 1122,1285 1057,1334C1010,1369 929,1387 815,1387C749,1387 707,1382 690,1371C672,1360 663,1341 663,1314z"
   id="glyph105" />
<glyph
   unicode="Q"
   horiz-adv-x="1706"
   d="M1291,109C1333,-15 1371,-99 1404,-143C1426,-171 1450,-185 1475,-185C1498,-185 1516,-176 1529,-158C1541,-141 1549,-103 1552,-45l90,0C1641,-154 1613,-241 1556,-304C1499,-367 1427,-399 1341,-399C1256,-399 1187,-370 1136,-313C1085,-256 1052,-154 1039,-9C1008,-16 977,-21 945,-24C913,-28 880,-30 846,-30C637,-30 460,43 317,190C173,336 101,521 101,744C101,968 172,1153 315,1299C458,1444 635,1517 847,1517C1060,1517 1240,1444 1385,1298C1530,1151 1603,970 1603,754C1603,621 1578,503 1529,400C1480,296 1400,199 1291,109M1196,350C1229,471 1246,611 1246,770C1246,931 1229,1058 1195,1150C1161,1242 1114,1310 1054,1354C994,1397 926,1419 849,1419C772,1419 704,1396 643,1351C582,1305 539,1241 512,1160C475,1045 457,905 457,738C457,537 484,380 539,266C542,362 573,437 630,491C687,545 765,572 864,572C936,572 1000,554 1055,517C1110,480 1157,424 1196,350M1039,125l2,55C1041,278 1022,352 983,402C944,451 894,476 833,476C780,476 735,456 697,416C659,375 640,325 640,266C640,211 658,158 693,108C745,82 797,69 849,69C888,69 923,74 955,83C986,92 1014,106 1039,125z"
   id="glyph107" />
<glyph
   unicode="R"
   horiz-adv-x="1669"
   d="M121,1479l772,0C1018,1479 1121,1463 1200,1431C1279,1398 1337,1354 1376,1299C1415,1243 1434,1181 1434,1113C1434,1004 1385,916 1288,849C1214,798 1100,764 946,749C1023,736 1083,716 1125,689C1166,661 1203,620 1235,565C1277,493 1311,407 1338,306C1355,241 1369,201 1382,184C1395,167 1409,159 1425,159C1469,159 1495,217 1504,334l88,0C1585,210 1558,121 1509,68C1460,14 1392,-13 1303,-13C1240,-13 1189,0 1151,26C1112,52 1083,90 1063,140C1051,169 1034,236 1013,342C988,466 966,549 947,592C927,635 901,666 870,687C839,708 800,718 754,718l-109,0l0,-545C645,149 652,131 666,118C686,101 709,93 736,93l134,0l0,-93l-749,0l0,93l116,0C267,93 290,101 305,117C320,132 328,154 328,182l0,1115C328,1328 321,1350 307,1365C293,1379 273,1386 247,1386l-126,0M645,808l125,0C881,808 968,836 1032,893C1080,936 1104,1009 1104,1112C1104,1207 1080,1276 1033,1320C986,1363 904,1385 787,1385C724,1385 685,1378 669,1365C653,1351 645,1320 645,1273z"
   id="glyph109" />
<glyph
   unicode="S"
   horiz-adv-x="1366"
   d="M1013,1366l93,132l71,0l9,-511l-90,0C1049,1134 983,1244 897,1317C811,1390 716,1426 612,1426C523,1426 451,1402 396,1354C340,1305 312,1247 312,1180C312,1140 323,1103 345,1070C367,1037 403,1008 452,985C501,961 586,936 709,911C852,881 951,854 1006,830C1093,791 1158,740 1201,677C1244,613 1266,535 1266,444C1266,307 1219,198 1125,117C1012,19 871,-30 704,-30C550,-30 409,24 282,131l-117,-146l-73,0l0,548l87,0C266,220 444,64 711,64C820,64 905,89 966,140C1027,190 1057,253 1057,328C1057,381 1044,425 1017,461C990,496 949,525 893,547C862,559 786,578 665,604C502,640 385,677 316,716C246,754 195,801 162,857C129,912 113,980 113,1060C113,1195 158,1305 249,1390C339,1475 460,1517 612,1517C758,1517 892,1467 1013,1366z"
   id="glyph111" />
<glyph
   unicode="T"
   horiz-adv-x="1479"
   d="M101,1479l1293,0l33,-562l-91,0C1315,1037 1287,1131 1253,1198C1219,1265 1180,1313 1137,1342C1093,1370 1045,1384 993,1384C963,1384 941,1378 927,1366C913,1353 906,1335 906,1312l0,-1144C906,146 913,128 927,114C940,100 957,93 976,93l168,0l0,-93l-791,0l0,93l160,0C537,93 556,100 570,114C584,127 591,145 591,168l0,1138C591,1333 584,1352 570,1365C555,1378 533,1384 502,1384C332,1384 217,1228 157,917l-88,0z"
   id="glyph113" />
<glyph
   unicode="U"
   horiz-adv-x="1706"
   d="M63,1479l744,0l0,-93l-151,0C635,1386 618,1379 606,1365C594,1350 588,1328 588,1299l0,-818C588,366 619,277 680,216C741,154 826,123 934,123C1013,123 1085,140 1150,174C1197,199 1236,241 1267,299C1297,357 1312,430 1312,518l0,628C1312,1226 1294,1286 1259,1326C1223,1366 1175,1386 1115,1386l-22,0l0,93l564,0l0,-93l-39,0C1559,1386 1515,1364 1484,1320C1453,1275 1438,1220 1438,1155l0,-681C1438,323 1387,201 1286,109C1184,16 1044,-30 866,-30C739,-30 628,-9 534,33C439,74 372,128 333,194C293,259 273,346 273,454l0,831C273,1324 266,1350 251,1365C236,1379 210,1386 172,1386l-109,0z"
   id="glyph115" />
<glyph
   unicode="V"
   horiz-adv-x="1554"
   d="M-24,1479l724,0l0,-93l-79,0C567,1386 531,1381 514,1370C496,1359 487,1345 487,1328C487,1312 495,1285 510,1248l370,-896l304,765C1205,1168 1215,1216 1215,1260C1215,1301 1203,1333 1178,1354C1153,1375 1116,1386 1066,1386l-67,0l0,93l572,0l0,-93l-43,0C1491,1386 1459,1373 1430,1348C1401,1323 1373,1277 1346,1212l-504,-1244l-120,0l-540,1307C164,1320 143,1349 120,1364C97,1379 59,1386 7,1386l-31,0z"
   id="glyph117" />
<glyph
   unicode="W"
   horiz-adv-x="2009"
   d="M-73,1479l595,0l0,-93l-56,0C431,1386 407,1382 395,1374C382,1365 376,1353 376,1336C376,1324 378,1310 383,1295l294,-873l256,762l-44,127C880,1338 867,1356 850,1366C828,1379 799,1386 763,1386l-72,0l0,93l685,0l0,-93l-63,0C1267,1386 1236,1381 1220,1370C1203,1359 1195,1344 1195,1323C1195,1314 1197,1305 1200,1295l292,-873l245,769C1745,1214 1749,1237 1749,1259C1749,1300 1738,1331 1717,1353C1695,1375 1666,1386 1631,1386l-42,0l0,93l482,0l0,-93C2018,1385 1975,1372 1944,1349C1912,1325 1889,1290 1874,1243l-410,-1270l-123,0l-348,1038l-349,-1038l-122,0l-452,1338C61,1339 48,1359 33,1370C18,1381 -2,1386 -26,1386l-47,0z"
   id="glyph119" />
<glyph
   unicode="X"
   horiz-adv-x="1479"
   d="M-76,1479l732,0l0,-93l-55,0C551,1386 518,1382 502,1373C486,1364 478,1353 478,1338C478,1321 492,1293 519,1255l247,-339l195,237C1004,1204 1025,1253 1025,1299C1025,1327 1016,1349 999,1364C981,1379 955,1386 921,1386l-46,0l0,93l582,0l0,-93l-44,0C1376,1386 1344,1378 1316,1363C1287,1348 1255,1319 1219,1277l-383,-453l490,-653C1349,140 1371,119 1390,109C1409,98 1432,93 1457,93l49,0l0,-93l-721,0l0,93l76,0C897,93 923,99 939,111C955,122 963,137 963,155C963,170 952,190 931,214l-10,14l-275,374l-230,-282C385,281 369,240 369,197C369,164 378,140 395,124C418,103 445,93 477,93l56,0l0,-93l-609,0l0,93l38,0C-7,93 25,103 59,122C115,155 158,191 189,228l388,463l-466,618C86,1341 65,1362 48,1372C31,1381 8,1386 -20,1386l-56,0z"
   id="glyph121" />
<glyph
   unicode="Y"
   horiz-adv-x="1479"
   d="M-10,1479l736,0l0,-93l-102,0C588,1386 563,1382 549,1373C535,1364 528,1352 528,1337C528,1320 534,1301 546,1280l308,-530l216,430C1088,1215 1097,1248 1097,1278C1097,1311 1085,1338 1062,1357C1039,1376 1003,1386 956,1386l-45,0l0,93l572,0l0,-93C1417,1385 1364,1372 1324,1347C1284,1322 1250,1281 1222,1226l-297,-587l0,-465C925,147 933,126 948,113C963,100 986,93 1018,93l153,0l0,-93l-810,0l0,93l152,0C548,93 572,100 586,113C600,126 607,146 607,174l0,413l-398,685C184,1316 157,1346 129,1362C100,1378 65,1386 22,1386l-32,0z"
   id="glyph123" />
<glyph
   unicode="Z"
   horiz-adv-x="1366"
   d="M174,1479l1088,0l0,-93l-829,-1293l377,0C875,93 932,108 980,137C1027,166 1069,212 1105,277C1141,342 1170,435 1192,556l91,0l-28,-556l-1171,0l0,93l825,1293l-283,0C512,1386 423,1354 358,1291C293,1227 249,1118 227,965l-87,0z"
   id="glyph125" />
<glyph
   unicode="\"
   horiz-adv-x="1241"
   d="M34,1479l189,0l984,-1479l-189,0z"
   id="glyph127" />
<glyph
   unicode="^"
   horiz-adv-x="1241"
   d="M379,761l-202,0l411,718l66,0l411,-718l-210,0l-239,418z"
   id="glyph129" />
<glyph
   unicode="_"
   horiz-adv-x="1024"
   d="M-12,-154l1048,0l0,-102l-1048,0z"
   id="glyph131" />
<glyph
   unicode="a"
   horiz-adv-x="1251"
   d="M1176,116l42,-72C1177,16 1141,-3 1109,-14C1076,-25 1041,-30 1002,-30C945,-30 898,-18 863,7C828,31 795,77 766,144C698,77 637,31 583,7C529,-18 468,-30 400,-30C306,-30 233,-8 180,35C127,78 101,133 101,200C101,301 150,381 247,442C325,490 496,538 760,586l0,135C760,774 742,818 707,852C672,885 624,902 565,902C520,902 480,892 445,873C422,860 410,848 410,835C410,828 414,818 423,805C442,775 451,745 451,716C451,679 439,649 414,626C389,603 356,591 315,591C271,591 236,604 209,629C182,654 169,686 169,725C169,790 204,847 274,896C361,957 470,988 600,988C698,988 785,973 861,942C910,923 949,889 980,841C1010,792 1025,733 1025,662l0,-475C1025,151 1032,125 1045,109C1058,93 1077,85 1100,85C1119,85 1145,95 1176,116M760,499C617,480 521,450 471,410C420,369 395,316 395,250C395,203 407,168 431,143C454,118 487,105 530,105C596,105 651,129 695,176C738,223 760,288 760,370z"
   id="glyph133" />
<glyph
   unicode="b"
   horiz-adv-x="1327"
   d="M55,1480l430,21l0,-693C535,873 587,919 641,947C694,974 753,988 817,988C934,988 1032,943 1110,854C1187,765 1226,644 1226,492C1226,331 1181,203 1092,106C1002,9 888,-40 750,-40C677,-40 612,-26 554,3C495,32 444,74 399,131C368,84 314,27 238,-40l-57,31C206,114 219,238 219,364l0,864C219,1279 214,1315 204,1336C193,1357 179,1372 162,1380C149,1386 114,1389 55,1389M696,845C657,845 621,832 588,805C554,778 528,740 511,689C494,638 485,559 485,452C485,306 504,204 542,145C580,86 629,56 689,56C751,56 804,89 849,154C894,219 916,320 916,455C916,590 895,689 853,752C810,814 758,845 696,845z"
   id="glyph135" />
<glyph
   unicode="c"
   horiz-adv-x="1139"
   d="M1009,338l78,-37C1046,196 984,114 899,57C814,-1 714,-30 597,-30C439,-30 316,13 227,100C138,186 94,302 94,448C94,605 147,735 252,836C357,937 496,988 669,988C794,988 889,963 955,913C1021,862 1054,801 1054,730C1054,678 1040,637 1011,607C982,576 943,561 896,561C855,561 822,573 798,597C773,620 761,651 761,689C761,722 774,760 801,803C812,821 818,834 818,841C818,854 808,866 787,877C758,894 719,902 672,902C584,902 520,874 481,818C428,744 402,632 402,482C402,332 428,227 481,166C533,105 600,74 683,74C748,74 810,96 868,140C925,183 972,249 1009,338z"
   id="glyph137" />
<glyph
   unicode="d"
   horiz-adv-x="1366"
   d="M667,1483l465,18l0,-1224C1132,214 1136,172 1145,151C1153,129 1166,113 1183,104C1200,94 1234,89 1283,89l0,-89l-385,-12l-28,182C811,93 758,42 711,17C663,-8 603,-21 532,-21C404,-21 300,22 219,108C138,194 98,311 98,458C98,621 141,750 226,845C311,940 417,988 544,988C612,988 673,973 726,944C779,914 827,866 870,799l0,426C870,1276 865,1312 856,1334C847,1356 834,1371 819,1380C803,1388 771,1392 722,1392l-55,0M635,859C558,859 500,825 462,757C431,702 415,614 415,493C415,392 424,317 441,268C458,218 483,181 516,157C548,132 585,120 626,120C694,120 749,149 790,207C845,283 873,380 873,499C873,609 849,697 801,762C753,827 698,859 635,859z"
   id="glyph139" />
<glyph
   unicode="e"
   horiz-adv-x="1176"
   d="M1067,462l-657,0C412,331 439,234 490,172C541,109 606,78 686,78C743,78 798,94 849,126C900,158 953,216 1007,300l73,-45C1023,155 959,84 886,41C813,-2 723,-24 618,-24C465,-24 341,23 246,116C151,209 104,329 104,475C104,621 152,743 247,841C342,939 459,988 598,988C694,988 777,968 846,929C915,890 968,832 1007,757C1045,681 1065,583 1067,462M410,552l313,0C752,552 773,559 786,574C799,589 805,615 805,654C805,731 787,791 752,834C717,876 672,897 617,897C552,897 503,868 469,811C434,754 415,667 410,552z"
   id="glyph141" />
<glyph
   unicode="f"
   horiz-adv-x="797"
   d="M518,936l240,0l0,-108l-240,0l0,-666C518,136 523,118 533,108C543,98 561,93 587,93l165,0l0,-93l-676,0l0,93l97,0C202,93 223,98 234,109C245,120 251,137 251,162l0,666l-161,0l0,108l161,0l0,38C251,1099 269,1202 306,1282C342,1361 393,1420 459,1459C524,1498 605,1517 701,1517C790,1517 860,1495 909,1452C958,1409 982,1355 982,1290C982,1239 967,1197 937,1164C906,1131 870,1114 828,1114C789,1114 756,1127 729,1153C702,1178 689,1210 689,1248C689,1287 709,1322 749,1351C768,1366 778,1378 778,1389C778,1398 773,1406 763,1412C748,1421 727,1426 702,1426C669,1426 638,1416 610,1395C581,1374 560,1345 547,1308C528,1253 518,1194 518,1132z"
   id="glyph143" />
<glyph
   unicode="g"
   horiz-adv-x="1251"
   d="M870,936C950,1031 1029,1079 1108,1079C1148,1079 1180,1067 1204,1044C1228,1021 1240,991 1240,954C1240,921 1231,895 1213,876C1194,856 1171,846 1143,846C1104,846 1075,867 1058,909C1047,934 1035,947 1020,947C1001,947 976,927 944,888C1016,815 1052,739 1052,658C1052,595 1035,539 1001,488C967,437 916,397 847,367C778,337 691,322 588,322l-107,2C402,324 348,316 320,300C291,284 277,263 277,238C277,216 286,200 304,189C327,174 365,167 416,167l92,3C607,175 680,178 727,178C882,178 990,156 1051,112C1112,68 1142,7 1142,-71C1142,-164 1107,-239 1037,-296C952,-365 803,-400 590,-400C409,-400 281,-379 208,-337C135,-295 98,-246 98,-189C98,-154 114,-123 145,-96C176,-69 243,-44 344,-21C278,-8 228,15 195,47C162,79 145,120 145,171C145,217 158,256 183,288C208,320 252,348 317,373C256,406 210,446 179,492C148,538 132,590 132,649C132,712 149,770 183,821C217,872 269,912 340,943C411,973 497,988 598,988C646,988 693,984 738,975C783,966 827,953 870,936M592,900C546,900 507,879 474,836C441,793 424,731 424,650C424,572 440,512 473,471C506,430 546,409 593,409C640,409 680,430 713,473C746,516 763,576 763,653C763,731 746,792 713,835C680,878 639,900 592,900M984,-163C984,-124 962,-95 918,-77C888,-64 821,-58 718,-58C531,-58 411,-71 357,-96C303,-121 276,-153 276,-191C276,-227 297,-257 339,-281C381,-306 461,-318 578,-318C731,-318 841,-300 908,-265C959,-238 984,-204 984,-163z"
   id="glyph145" />
<glyph
   unicode="h"
   horiz-adv-x="1403"
   d="M74,1479l442,22l0,-728C583,856 645,912 702,943C759,973 821,988 888,988C981,988 1053,960 1102,903C1158,838 1186,745 1186,626l0,-444C1186,151 1193,129 1207,115C1221,100 1241,93 1268,93l65,0l0,-93l-565,0l0,93l61,0C863,93 886,99 898,112C915,129 923,152 923,182l0,436C923,681 906,731 873,768C839,805 797,823 746,823C683,823 629,797 584,744C539,691 516,620 516,529l0,-347C516,152 523,130 538,115C552,100 572,93 599,93l68,0l0,-93l-582,0l0,93l81,0C195,93 216,101 231,116C246,131 253,153 253,182l0,1101C253,1315 243,1340 223,1359C202,1377 175,1386 141,1386l-67,0z"
   id="glyph147" />
<glyph
   unicode="i"
   horiz-adv-x="758"
   d="M371,1476C416,1476 454,1460 486,1429C518,1397 534,1358 534,1313C534,1268 518,1229 486,1198C454,1166 416,1150 371,1150C326,1150 287,1166 255,1198C223,1230 207,1268 207,1313C207,1358 223,1397 255,1429C287,1460 326,1476 371,1476M114,936l416,19l0,-795C530,139 537,122 551,111C564,99 585,93 613,93l63,0l0,-93l-562,0l0,93l62,0C209,93 233,101 247,116C260,131 267,158 267,196l0,542C267,772 257,798 238,817C218,836 191,845 156,845l-42,0z"
   id="glyph149" />
<glyph
   unicode="j"
   horiz-adv-x="721"
   d="M361,1481C406,1481 444,1465 476,1434C508,1402 524,1363 524,1318C524,1273 508,1234 476,1203C444,1171 406,1155 361,1155C316,1155 277,1171 245,1203C213,1234 197,1273 197,1318C197,1363 213,1402 245,1434C277,1465 316,1481 361,1481M99,936l421,27l0,-856C520,22 499,-60 457,-141C414,-222 361,-285 296,-328C231,-372 165,-394 98,-394C45,-394 3,-380 -27,-353C-58,-326 -73,-292 -73,-251C-73,-212 -62,-181 -39,-158C-16,-135 13,-124 50,-124C75,-124 96,-130 111,-143C126,-156 138,-181 147,-218C158,-259 174,-279 195,-279C212,-279 227,-269 240,-249C253,-229 259,-197 259,-152l0,896C259,778 250,804 231,823C212,841 188,850 158,850l-59,0z"
   id="glyph151" />
<glyph
   unicode="k"
   horiz-adv-x="1366"
   d="M58,1488l442,13l0,-1027l277,223C821,733 843,763 843,788C843,803 834,817 816,829C798,840 769,846 729,846l-33,0l0,90l545,0l0,-90C1183,844 1138,837 1105,824C1060,807 1018,781 978,748l-158,-131l346,-469C1194,111 1228,93 1267,93l50,0l0,-93l-588,0l0,93l58,0C815,93 835,96 846,103C857,109 863,116 863,124C863,131 860,139 853,148l-225,313l-128,-101l0,-186C500,145 506,124 518,112C530,99 550,93 577,93l65,0l0,-93l-574,0l0,93l71,0C173,93 198,101 214,118C229,134 237,159 237,192l0,1128C237,1345 229,1365 214,1378C198,1391 176,1398 147,1398l-89,0z"
   id="glyph153" />
<glyph
   unicode="l"
   horiz-adv-x="721"
   d="M73,1479l438,22l0,-1331C511,146 519,127 534,114C549,100 571,93 600,93l59,0l0,-93l-563,0l0,93l64,0C189,93 211,101 226,117C240,132 247,156 247,188l0,1093C247,1315 238,1341 219,1360C200,1378 175,1387 143,1387l-70,0z"
   id="glyph155" />
<glyph
   unicode="m"
   horiz-adv-x="1972"
   d="M1967,93l0,-93l-563,0l0,93l58,0C1497,93 1522,100 1537,114C1551,128 1558,150 1558,179l0,407C1558,661 1543,717 1512,753C1481,789 1437,807 1382,807C1337,807 1298,797 1266,777C1233,756 1205,722 1182,675C1159,627 1147,580 1147,534l0,-367C1147,143 1154,125 1167,112C1180,99 1198,93 1221,93l77,0l0,-93l-575,0l0,93l64,0C822,93 845,99 857,110C872,125 880,146 880,173l0,422C880,662 863,715 830,752C797,789 754,808 703,808C663,808 626,798 592,777C557,756 528,724 504,681C479,638 467,598 467,562l0,-367C467,158 474,132 487,119C505,102 530,93 563,93l55,0l0,-93l-578,0l0,93l66,0C141,93 166,100 180,113C193,126 200,148 200,179l0,563C200,767 195,788 186,803C176,818 161,829 140,837C125,843 93,846 46,846l0,90l386,21C447,893 456,824 461,750C525,831 587,888 646,921C705,953 769,969 838,969C913,969 975,950 1024,913C1073,875 1109,818 1132,742C1195,825 1258,884 1321,919C1383,954 1448,971 1516,971C1611,971 1685,941 1740,882C1795,822 1822,737 1822,627l0,-448C1822,148 1829,126 1843,113C1856,100 1877,93 1906,93z"
   id="glyph157" />
<glyph
   unicode="n"
   horiz-adv-x="1403"
   d="M1347,93l0,-93l-563,0l0,93l59,0C874,93 898,101 913,117C928,133 936,156 936,187l0,406C936,662 920,716 889,753C857,790 815,808 764,808C694,808 637,782 593,730C549,677 527,601 527,500l0,-313C527,156 535,133 551,117C566,101 586,93 611,93l71,0l0,-93l-584,0l0,93l76,0C203,93 226,101 241,117C256,133 263,156 263,187l0,557C263,776 252,802 231,821C209,840 180,849 145,849l-40,0l0,87l390,21C509,900 520,831 527,752C582,826 640,881 702,918C764,955 829,973 898,973C991,973 1065,942 1119,880C1172,818 1199,732 1199,621l0,-434C1199,154 1207,130 1222,115C1237,100 1262,93 1295,93z"
   id="glyph159" />
<glyph
   unicode="o"
   horiz-adv-x="1251"
   d="M617,988C722,988 818,965 906,920C993,875 1058,816 1101,743C1144,670 1165,582 1165,479C1165,315 1109,189 998,102C886,14 759,-30 618,-30C518,-30 427,-7 344,38C261,83 197,143 152,220C107,296 85,382 85,478C85,623 136,744 237,842C338,939 464,988 617,988M623,893C554,893 499,863 458,802C417,741 396,633 396,480C396,321 416,211 457,151C498,90 553,60 622,60C693,60 750,91 793,153C836,215 858,322 858,474C858,630 837,739 794,801C751,862 694,893 623,893z"
   id="glyph161" />
<glyph
   unicode="p"
   horiz-adv-x="1366"
   d="M98,931l381,24C494,894 503,833 506,772C545,835 596,885 658,920C719,955 788,972 863,972C984,972 1081,929 1156,843C1231,757 1268,635 1268,478C1268,369 1250,276 1214,200C1178,124 1128,67 1064,28C999,-11 924,-30 838,-30C769,-30 708,-14 655,17C602,48 552,97 506,166l0,-335C506,-213 509,-241 516,-253C523,-266 535,-275 554,-281C572,-288 608,-291 663,-292l0,-96l-565,0l0,96l30,0C163,-292 187,-289 199,-282C211,-276 220,-265 227,-250C232,-239 234,-212 234,-169l0,886C234,760 231,789 224,804C217,818 207,828 194,835C180,841 148,845 98,847M738,832C673,832 618,801 573,739C528,677 505,586 505,467C505,349 529,259 577,196C624,133 679,102 740,102C800,102 848,129 885,183C933,254 957,350 957,471C957,582 938,670 899,735C860,800 807,832 738,832z"
   id="glyph163" />
<glyph
   unicode="q"
   horiz-adv-x="1327"
   d="M1096,992l61,-30l-11,-54C1130,825 1122,750 1122,682l0,-835C1122,-202 1126,-233 1133,-247C1140,-261 1151,-272 1168,-279C1184,-286 1220,-291 1276,-292l0,-96l-582,0l0,96l31,0C770,-292 801,-288 818,-281C834,-274 845,-264 852,-251C859,-238 862,-211 862,-168l0,336C817,102 766,53 710,20C653,-13 591,-30 524,-30C447,-30 376,-10 311,29C246,68 194,126 156,201C118,276 99,360 99,452C99,552 121,644 165,729C209,814 268,878 341,922C414,966 496,988 588,988C653,988 714,975 771,950C828,925 886,883 947,824C983,877 1033,933 1096,992M651,895C582,895 525,862 478,797C431,732 408,631 408,496C408,375 431,282 476,217C521,152 575,120 636,120C675,120 713,134 748,161C783,188 810,231 831,290C851,349 861,425 861,519C861,646 840,741 798,803C756,864 707,895 651,895z"
   id="glyph165" />
<glyph
   unicode="r"
   horiz-adv-x="1063"
   d="M741,93l0,-93l-654,0l0,93l81,0C201,93 226,100 241,113C256,126 264,143 264,165l0,554C264,764 254,796 234,817C213,838 185,848 148,848l-53,0l0,88l400,21l0,-305C518,754 559,832 617,887C675,942 740,969 813,969C875,969 924,953 960,920C996,887 1014,844 1014,792C1014,747 1002,711 977,684C952,656 921,642 885,642C853,642 826,654 803,678C780,702 768,733 768,770C768,791 774,812 785,835C791,848 794,857 794,862C794,871 792,878 788,883C783,887 776,889 767,889C743,889 717,875 688,847C644,804 607,736 577,645C547,553 532,460 532,367l0,-202C532,142 538,124 551,112C564,99 581,93 604,93z"
   id="glyph167" />
<glyph
   unicode="s"
   horiz-adv-x="1024"
   d="M742,908l66,79l61,0l20,-320l-81,0C765,752 719,811 668,846C617,880 555,897 482,897C419,897 372,885 339,861C306,837 290,807 290,770C290,734 303,707 328,688C353,669 423,648 536,625C639,604 707,587 741,573C806,547 856,508 893,457C929,406 947,346 947,277C947,190 912,118 843,59C773,0 681,-30 568,-30C513,-30 464,-23 420,-10C375,3 329,25 281,58l-71,-84l-76,0l-18,354l83,0C270,149 391,60 563,60C634,60 688,74 725,101C762,128 781,161 781,199C781,234 769,260 746,278C723,296 661,315 560,336C451,358 377,377 338,393C271,419 220,455 186,502C152,548 135,604 135,669C135,762 166,839 228,899C290,958 373,988 477,988C528,988 573,982 614,970C654,958 697,937 742,908z"
   id="glyph169" />
<glyph
   unicode="t"
   horiz-adv-x="872"
   d="M387,1321l90,0l0,-385l309,0l0,-108l-309,0l0,-595C477,194 487,163 507,142C527,120 553,109 586,109C679,109 729,196 734,370l90,0C822,277 807,203 780,147C753,90 714,47 663,16C612,-15 554,-30 490,-30C434,-30 386,-19 345,4C304,27 271,61 247,106C222,151 210,199 210,252l0,576l-166,0l0,92C145,933 224,972 281,1037C338,1102 373,1196 387,1321z"
   id="glyph171" />
<glyph
   unicode="u"
   horiz-adv-x="1403"
   d="M82,936l418,24l0,-624C500,278 516,232 547,199C578,165 619,148 669,148C740,148 796,176 839,232C881,288 902,354 902,429l0,306C902,771 892,798 872,817C852,836 825,845 790,845l-46,0l0,91l422,24l0,-758C1166,168 1177,141 1198,122C1219,103 1246,93 1281,93l43,0l0,-93l-387,-12C921,55 912,126 909,202C844,120 782,62 722,29C662,-4 600,-21 535,-21C471,-21 417,-8 374,19C330,46 295,88 269,146C243,204 230,274 230,357l0,372C230,770 220,799 199,817C178,834 139,844 82,845z"
   id="glyph173" />
<glyph
   unicode="v"
   horiz-adv-x="1251"
   d="M43,936l559,0l0,-89l-46,0C519,847 494,842 481,833C468,824 461,810 461,793C461,774 468,752 483,725l240,-445l209,416C943,717 948,737 948,758C948,815 901,844 806,847l0,89l409,0l0,-89C1178,843 1149,834 1129,821C1109,807 1091,784 1075,753l-392,-786l-72,0l-432,795C160,797 143,820 128,831C113,842 93,847 68,847l-25,0z"
   id="glyph175" />
<glyph
   unicode="w"
   horiz-adv-x="1821"
   d="M103,936l483,0l0,-88l-28,0C527,848 506,844 495,836C483,827 477,816 477,803C477,794 479,784 484,774l196,-433l169,403C822,795 801,825 786,833C769,843 741,848 702,848l0,88l524,0l0,-88l-31,0C1163,848 1141,844 1129,835C1117,826 1111,814 1111,799C1111,782 1116,763 1125,744l185,-403l160,391C1474,743 1476,755 1476,768C1476,793 1469,812 1456,827C1442,841 1424,848 1402,848l-38,0l0,88l373,0l0,-88C1660,843 1605,800 1572,720l-302,-752l-75,0l-289,646l-263,-646l-76,0l-357,806C197,803 183,822 170,832C156,841 134,847 103,848z"
   id="glyph177" />
<glyph
   unicode="x"
   horiz-adv-x="1251"
   d="M79,936l554,0l0,-87l-40,0C568,849 552,846 543,840C534,834 529,826 529,815C529,805 532,796 539,788l146,-186l122,130C830,755 841,776 841,794C841,811 834,823 821,832C804,843 778,849 743,849l-21,0l0,87l430,0l0,-87C1109,846 1075,838 1049,825C1022,812 992,788 957,752l-214,-221l285,-361C1053,138 1080,116 1109,104C1128,97 1158,93 1200,93l0,-93l-592,0l0,93l55,0C686,93 703,96 713,103C723,109 728,116 728,124C728,134 723,146 713,159l-151,194l-142,-147C406,191 399,176 399,159C399,140 406,124 421,112C435,99 453,93 476,93l45,0l0,-93l-452,0l0,93l36,0C158,93 212,121 267,178l239,245l-275,344C202,804 179,826 163,835C147,843 119,848 79,849z"
   id="glyph179" />
<glyph
   unicode="y"
   horiz-adv-x="1251"
   d="M68,936l553,0l0,-86l-53,0C536,850 513,845 500,836C487,827 480,815 480,800C480,783 486,764 497,743l233,-454l196,411C937,723 942,743 942,762C942,789 932,810 912,826C892,842 863,850 824,850l-29,0l0,86l407,0l0,-86C1162,849 1130,840 1107,824C1084,807 1063,780 1045,743l-373,-781C609,-171 542,-268 471,-329C417,-374 356,-397 289,-397C219,-397 164,-380 123,-346C82,-312 62,-270 62,-220C62,-183 74,-152 98,-128C121,-105 151,-93 187,-93C224,-93 254,-104 277,-127C300,-150 312,-179 312,-214C312,-225 310,-240 305,-257C302,-267 301,-275 301,-280C301,-296 310,-304 327,-304C358,-304 396,-279 442,-229C488,-180 538,-101 593,8l-399,768C179,805 164,824 149,835C134,845 115,850 94,850l-26,0z"
   id="glyph181" />
<glyph
   unicode="z"
   horiz-adv-x="1100"
   d="M177,936l809,0l0,-90l-559,-753l264,0C748,93 796,114 834,155C871,196 899,269 917,374l88,0l-19,-374l-874,0l0,93l558,753l-221,0C398,846 355,827 321,789C287,751 262,685 247,592l-89,0z"
   id="glyph183" />
<glyph
   unicode="~"
   horiz-adv-x="1241"
   d="M1113,855l65,0C1173,742 1145,656 1092,597C1039,538 974,508 897,508C860,508 820,514 777,526C734,538 646,572 512,628C416,669 345,689 299,689C204,689 146,629 127,509l-64,0C68,626 97,713 148,770C199,827 263,856 341,856C380,856 421,850 464,838C530,819 618,786 727,737C789,710 837,692 870,682C891,677 913,674 938,674C985,674 1025,690 1057,721C1088,752 1107,796 1113,855z"
   id="glyph185" />
<glyph
   unicode="£"
   horiz-adv-x="1176"
   d="M616,747l335,0l0,-107l-318,0C643,563 648,510 648,483C648,438 639,386 622,329l72,-33C754,269 800,251 832,242C864,233 894,229 922,229C978,229 1025,256 1064,311l82,-56C1114,150 1072,75 1019,30C966,-15 903,-38 830,-38C779,-38 728,-28 679,-7C630,14 573,53 508,110C416,12 321,-37 222,-37C149,-37 90,-16 45,25C0,66 -23,119 -23,184C-23,247 2,301 53,346C104,391 169,413 248,413C301,413 372,400 459,375C455,418 447,455 436,487C425,519 399,570 358,640l-254,0l0,107l211,0C284,842 268,924 268,992C268,1111 310,1210 393,1289C476,1368 584,1408 715,1408C822,1408 909,1381 974,1328C1039,1274 1071,1208 1071,1130C1071,1067 1056,1019 1026,986C995,953 954,937 902,937C863,937 832,949 809,972C786,995 774,1025 774,1062C774,1114 792,1155 829,1184C846,1198 856,1207 859,1212C865,1223 868,1234 868,1244C868,1263 856,1281 833,1297C810,1313 776,1321 733,1321C666,1321 614,1302 577,1265C539,1228 520,1176 520,1109C520,1084 522,1060 527,1039C531,1018 544,975 566,911C583,860 600,805 616,747M419,183C353,244 286,274 218,274C171,274 134,264 109,245C84,225 71,200 71,169C71,135 84,107 110,84C136,61 172,49 217,49C302,49 370,94 419,183z"
   id="glyph187" />
<glyph
   unicode="•"
   horiz-adv-x="1241"
   d="M618,976C699,976 767,948 824,891C881,834 909,766 909,685C909,605 881,537 825,480C768,423 700,395 620,395C540,395 472,424 416,481C359,538 331,606 331,686C331,766 359,834 415,891C471,948 539,976 618,976z"
   id="glyph189" />
<glyph
   unicode="®"
   horiz-adv-x="1530"
   d="M765,1426C894,1426 1014,1394 1125,1330C1236,1265 1324,1178 1389,1067C1453,956 1485,836 1485,708C1485,579 1453,460 1389,349C1324,238 1236,150 1125,86C1014,21 894,-11 765,-11C637,-11 517,21 406,86C295,150 207,238 143,349C78,460 46,579 46,708C46,836 78,956 143,1067C207,1178 295,1265 406,1330C517,1394 637,1426 765,1426M765,1335C653,1335 548,1307 451,1251C354,1195 277,1119 221,1022C164,925 136,820 136,708C136,596 164,491 221,394C277,297 354,220 451,164C548,108 653,80 765,80C878,80 983,108 1080,164C1177,220 1254,297 1310,394C1366,491 1394,596 1394,708C1394,820 1366,925 1310,1022C1254,1119 1177,1195 1080,1251C983,1307 878,1335 765,1335M380,1127l368,0C844,1127 916,1118 965,1101C1013,1083 1049,1058 1072,1026C1095,993 1107,955 1107,910C1107,855 1092,810 1062,774C1032,738 987,711 926,694l149,-271C1090,394 1105,374 1119,363C1133,352 1150,344 1171,340l0,-34l-245,0l-207,373l-47,0l0,-222C672,412 680,382 696,366C712,350 744,341 793,340l0,-34l-429,0l0,34C405,340 434,348 449,365C464,381 471,412 471,457l0,533C471,1026 464,1051 451,1066C438,1080 414,1088 380,1091M672,731C691,728 708,726 723,726C772,726 812,743 843,776C874,809 890,854 890,911C890,967 875,1010 845,1039C815,1068 770,1082 710,1082l-38,0z"
   id="glyph191" />
<glyph
   unicode="©"
   horiz-adv-x="1530"
   d="M765,1426C894,1426 1014,1394 1125,1330C1236,1265 1324,1178 1389,1067C1453,956 1485,836 1485,708C1485,579 1453,460 1389,349C1324,238 1236,150 1125,86C1014,21 894,-11 765,-11C637,-11 517,21 406,86C295,150 207,238 143,349C78,460 46,579 46,708C46,836 78,956 143,1067C207,1178 295,1265 406,1330C517,1394 637,1426 765,1426M765,1335C653,1335 548,1307 451,1251C354,1195 277,1119 221,1022C164,925 136,820 136,708C136,596 164,491 221,394C277,297 354,220 451,164C548,108 653,80 765,80C878,80 983,108 1080,164C1177,220 1254,297 1310,394C1366,491 1394,596 1394,708C1394,820 1366,925 1310,1022C1254,1119 1177,1195 1080,1251C983,1307 878,1335 765,1335M1105,1142l0,-268l-39,0C1053,944 1024,998 979,1037C934,1075 879,1094 816,1094C746,1094 685,1066 633,1011C580,955 554,857 554,718C554,579 580,483 632,428C684,373 745,345 816,345C911,345 998,392 1077,485l0,-71C991,329 884,286 756,286C629,286 525,324 446,401C367,478 327,577 327,700C327,829 369,935 454,1019C538,1102 646,1144 777,1144C834,1144 899,1130 973,1103C996,1094 1012,1090 1022,1090C1046,1090 1061,1107 1066,1142z"
   id="glyph193" />
<glyph
   unicode="™"
   horiz-adv-x="2048"
   d="M-17,1479l788,0l0,-231l-36,0C733,1307 717,1352 686,1381C655,1410 606,1425 538,1425l-38,0l0,-597C500,771 507,735 521,719C534,702 562,694 604,694l0,-35l-460,0l0,35C185,697 210,701 220,706C229,711 236,721 241,735C246,748 248,779 248,828l0,597l-35,0C149,1425 102,1411 71,1384C40,1356 21,1311 16,1248l-33,0M869,1479l373,0l235,-504l232,504l352,0l0,-40C2028,1439 2006,1435 1993,1428C1980,1421 1971,1409 1965,1393C1960,1382 1958,1352 1958,1304l0,-476C1958,775 1964,741 1975,727C1991,707 2020,696 2061,694l0,-35l-468,0l0,35C1642,695 1674,703 1688,719C1702,734 1709,771 1709,828l0,509l-324,-678l-25,0l-322,678l0,-509C1038,780 1041,750 1046,738C1051,725 1062,715 1077,707C1092,699 1117,695 1154,694l0,-35l-285,0l0,35C908,695 934,699 946,706C958,713 967,723 972,737C977,750 980,781 980,828l0,476C980,1351 977,1381 972,1396C966,1411 957,1422 944,1429C931,1436 906,1439 869,1439z"
   id="glyph195" />
<glyph
   unicode=" "
   horiz-adv-x="588"
   id="glyph197" />
<glyph
   unicode="“"
   horiz-adv-x="985"
   d="M361,1505l34,-63C318,1399 261,1355 224,1308C187,1261 168,1221 168,1190C168,1169 178,1158 199,1158l26,2l31,2C304,1162 344,1146 377,1113C410,1080 426,1040 426,992C426,943 410,903 377,870C344,837 302,821 251,821C190,821 138,845 95,893C52,941 31,1003 31,1078C31,1155 59,1232 114,1309C169,1385 252,1450 361,1505M883,1504l34,-62C839,1399 782,1354 746,1307C709,1260 691,1221 691,1190C691,1169 701,1158 722,1158l26,2l30,2C826,1162 866,1146 899,1113C932,1080 948,1040 948,992C948,943 932,902 899,870C866,837 825,821 774,821C712,821 660,845 617,893C574,941 553,1003 553,1078C553,1155 581,1231 636,1308C691,1385 774,1450 883,1504z"
   id="glyph199" />
<glyph
   unicode="”"
   horiz-adv-x="985"
   d="M609,827l-34,62C653,933 710,978 747,1025C783,1072 801,1111 801,1142C801,1163 791,1174 770,1174l-26,-3l-31,-2C665,1169 625,1185 592,1218C559,1251 543,1291 543,1339C543,1388 560,1429 593,1462C626,1495 667,1511 718,1511C779,1511 831,1487 874,1439C917,1391 938,1329 938,1253C938,1176 911,1100 856,1024C801,947 718,882 609,827M86,827l-34,62C130,933 187,978 224,1025C261,1071 279,1110 279,1142C279,1163 268,1174 247,1174l-26,-3l-30,-2C143,1169 103,1185 70,1218C37,1251 21,1291 21,1339C21,1388 37,1429 70,1462C103,1495 144,1511 195,1511C257,1511 309,1487 352,1439C395,1391 416,1329 416,1253C416,1176 388,1100 333,1024C278,947 195,882 86,827z"
   id="glyph201" />
<glyph
   unicode="‘"
   horiz-adv-x="494"
   d="M403,1517l33,-61C360,1417 303,1374 264,1325C225,1276 206,1235 206,1201C206,1182 216,1172 235,1172l28,3C277,1177 288,1178 296,1178C341,1178 380,1161 414,1128C447,1094 464,1054 464,1007C464,960 447,919 414,886C380,852 338,835 289,835C228,835 177,859 134,907C91,955 69,1016 69,1090C69,1167 98,1246 157,1325C215,1404 297,1468 403,1517z"
   id="glyph203" />
<glyph
   unicode="’"
   horiz-adv-x="494"
   d="M90,838l-33,61C132,936 189,980 228,1029C267,1078 287,1120 287,1153C287,1173 277,1183 258,1183l-28,-3C216,1177 205,1176 197,1176C152,1176 113,1193 80,1227C46,1260 29,1300 29,1346C29,1393 46,1433 80,1467C113,1500 155,1517 204,1517C265,1517 317,1493 360,1445C403,1397 424,1336 424,1263C424,1186 395,1108 337,1029C279,950 197,887 90,838z"
   id="glyph205" />
<glyph
   unicode="€"
   horiz-adv-x="1176"
   d="M172,852C198,1028 259,1166 355,1265C450,1364 566,1413 702,1413C801,1413 883,1374 950,1296l54,113l71,0l23,-432l-76,0C981,1108 935,1198 885,1247C835,1295 777,1319 711,1319C570,1319 490,1163 469,852l344,0l-45,-107l-303,0C464,728 463,701 463,666l0,-21l350,0l-45,-106l-303,0C468,385 492,269 537,190C582,111 644,72 725,72C796,72 859,98 914,151C968,204 1006,278 1028,373l80,0C1060,106 926,-27 705,-27C556,-27 433,23 338,122C242,221 185,360 168,539l-141,0l41,106l94,0l0,21C162,701 163,728 164,745l-137,0l41,107z"
   id="glyph207" />
</font>

	<font
   horiz-adv-x="2048"
   id="font209"
   horiz-origin-x="0"
   horiz-origin-y="0"
   vert-origin-x="45"
   vert-origin-y="90"
   vert-adv-y="90">
<!-- Century Schoolbook is a registered trademark of The Monotype Corporation plc. -->
<!-- Copyright: Copyright 2007 Adobe System Incorporated. All rights reserved. -->
<font-face
   font-family="CenturySchoolbook"
   units-per-em="2048"
   underline-position="-205"
   underline-thickness="102"
   id="font-face211" />
<missing-glyph
   horiz-adv-x="1536"
   d="M256,0l0,1280l1024,0l0,-1280M288,32l960,0l0,1216l-960,0z"
   id="missing-glyph213" />
<glyph
   unicode=" "
   horiz-adv-x="569"
   id="glyph215" />
<glyph
   unicode="!"
   horiz-adv-x="606"
   d="M334,434l-52,0C281,553 278,643 272,702C262,800 245,916 221,1049C195,1198 182,1296 182,1342C182,1400 194,1444 217,1473C240,1502 271,1516 309,1516C348,1516 379,1502 402,1475C425,1447 436,1404 436,1345C436,1295 423,1196 396,1049C372,920 356,813 348,728C340,643 335,545 334,434M309,216C343,216 372,204 396,180C419,156 431,127 431,93C431,60 419,32 395,8C371,-16 342,-28 309,-28C276,-28 247,-16 224,7C200,30 188,59 188,93C188,128 200,157 223,181C246,204 275,216 309,216z"
   id="glyph217" />
<glyph
   unicode="&quot;"
   horiz-adv-x="797"
   d="M189,820l-55,297C119,1198 111,1254 111,1287C111,1330 120,1362 138,1383C155,1403 179,1413 210,1413C239,1413 264,1403 284,1383C304,1362 314,1335 314,1302C314,1273 305,1212 288,1117l-55,-297M561,820l-56,297C489,1203 481,1261 481,1292C481,1333 490,1364 509,1384C528,1403 553,1413 584,1413C614,1413 639,1403 658,1383C677,1363 686,1336 686,1302C686,1245 679,1184 666,1117l-57,-297z"
   id="glyph219" />
<glyph
   unicode="#"
   horiz-adv-x="1139"
   d="M-34,1059l336,0l90,420l126,0l-90,-420l361,0l91,420l127,0l-89,-420l203,0l0,-128l-228,0l-80,-383l308,0l0,-130l-332,0l-89,-418l-128,0l89,418l-366,0l-85,-418l-129,0l88,418l-203,0l0,130l230,0l80,383l-310,0M402,931l-80,-383l364,0l80,383z"
   id="glyph221" />
<glyph
   unicode="$"
   horiz-adv-x="1139"
   d="M540,1508l84,0l0,-97C667,1411 722,1400 787,1378C852,1356 902,1322 938,1276C974,1230 992,1178 992,1121C992,1078 981,1044 959,1019C937,994 909,981 876,981C847,981 822,991 802,1011C781,1031 771,1056 771,1086C771,1117 783,1147 807,1178C831,1211 843,1232 843,1241C843,1260 828,1278 797,1297C752,1324 694,1339 624,1342l0,-541C770,750 875,686 940,611C1004,535 1036,448 1036,349C1036,242 1000,155 929,87C858,19 756,-20 624,-29l0,-249l-84,0l0,249C461,-29 391,-15 329,13C266,40 220,77 191,122C161,167 146,215 146,268C146,316 158,354 182,383C205,412 234,426 269,426C301,426 328,415 349,393C370,370 381,340 381,303C381,265 366,233 335,207C300,176 282,156 282,145C282,125 300,105 337,85C388,57 455,42 540,40l0,571C287,692 160,833 160,1033C160,1138 194,1225 263,1295C332,1365 424,1404 540,1411M540,833l0,508C456,1336 390,1310 343,1265C296,1220 272,1165 272,1100C272,1045 290,996 327,955C363,913 434,872 540,833M624,578l0,-537C716,49 787,77 837,124C887,171 912,229 912,296C912,355 892,407 853,452C813,497 737,539 624,578z"
   id="glyph223" />
<glyph
   unicode="%"
   horiz-adv-x="1706"
   d="M396,1413C483,1413 555,1380 610,1315C665,1249 692,1157 692,1040C692,927 664,838 609,774C553,710 482,678 397,678C313,678 243,711 188,776C133,841 105,930 105,1045C105,1156 133,1246 189,1313C245,1380 314,1413 396,1413M400,1366C357,1366 323,1344 296,1299C269,1254 255,1171 255,1049C255,923 268,837 295,792C322,746 356,723 397,723C440,723 475,746 502,791C529,836 543,918 543,1035C543,1164 530,1252 504,1298C477,1343 443,1366 400,1366M1322,1387l87,0l-1019,-1387l-86,0M1301,707C1388,707 1460,674 1515,609C1570,543 1597,451 1597,334C1597,221 1569,133 1514,69C1459,4 1388,-28 1303,-28C1218,-28 1148,5 1093,70C1038,135 1010,225 1010,340C1010,451 1038,540 1094,607C1150,674 1219,707 1301,707M1305,660C1262,660 1228,638 1201,593C1174,548 1160,465 1160,343C1160,217 1173,131 1200,86C1227,41 1261,18 1302,18C1345,18 1380,41 1407,86C1434,131 1448,212 1448,329C1448,458 1435,546 1409,592C1382,637 1348,660 1305,660z"
   id="glyph225" />
<glyph
   unicode="&amp;"
   horiz-adv-x="1669"
   d="M703,852C790,705 856,598 902,531C948,464 998,398 1053,333C1157,462 1209,568 1209,649C1209,686 1196,715 1170,736C1144,757 1105,768 1053,768l-53,0l0,69l556,0l0,-69l-42,0C1478,768 1448,763 1425,752C1402,741 1380,725 1361,703C1341,680 1317,639 1289,579C1232,458 1172,357 1107,275C1198,182 1278,135 1346,135C1387,135 1422,151 1450,184C1477,217 1496,273 1505,353l62,0C1567,228 1540,134 1487,69C1433,4 1365,-28 1283,-28C1237,-28 1190,-16 1143,7C1095,30 1037,73 970,134C893,73 824,30 763,7C702,-16 637,-28 568,-28C442,-28 338,12 256,93C173,174 132,273 132,391C132,482 158,563 211,636C263,709 357,781 493,852C430,982 398,1090 398,1177C398,1271 432,1351 501,1417C569,1483 653,1516 752,1516C847,1516 921,1492 976,1443C1031,1394 1058,1330 1058,1249C1058,1172 1032,1102 980,1039C927,975 835,913 703,852M665,929C761,971 827,1016 863,1064C899,1111 917,1168 917,1235C917,1298 901,1347 868,1384C835,1421 792,1439 741,1439C690,1439 648,1422 615,1387C582,1352 565,1305 565,1247C565,1162 598,1056 665,929M528,774C387,696 317,602 317,493C317,409 350,321 416,229C481,136 563,90 661,90C744,90 829,124 916,191C851,268 793,345 742,421C691,496 619,614 528,774z"
   id="glyph227" />
<glyph
   unicode="'"
   horiz-adv-x="418"
   d="M185,820l-55,300C115,1203 107,1259 107,1288C107,1331 116,1363 133,1383C150,1403 175,1413 206,1413C237,1413 262,1403 282,1383C301,1363 311,1336 311,1303C311,1278 302,1217 284,1120l-55,-300z"
   id="glyph229" />
<glyph
   unicode="("
   horiz-adv-x="682"
   d="M647,1512l26,-55C578,1356 509,1265 464,1184C419,1103 384,1011 361,908C337,805 325,685 325,550C325,420 337,304 362,202C387,99 422,6 469,-78C516,-163 584,-252 673,-346l-26,-52C540,-303 459,-223 404,-156C315,-48 247,65 201,184C155,303 132,427 132,556C132,683 154,804 197,919C240,1034 303,1143 387,1247C445,1319 532,1407 647,1512z"
   id="glyph231" />
<glyph
   unicode=")"
   horiz-adv-x="682"
   d="M35,1512C152,1406 237,1320 291,1254C375,1151 439,1041 484,924C528,807 550,685 550,556C550,429 529,310 486,197C443,84 379,-26 294,-134C233,-211 147,-299 35,-398l-26,52C98,-253 166,-164 213,-79C260,6 295,99 320,201C345,303 357,419 357,549C357,685 345,805 321,908C297,1011 263,1103 218,1185C173,1266 103,1357 9,1457z"
   id="glyph233" />
<glyph
   unicode="*"
   horiz-adv-x="1024"
   d="M538,1118C563,1125 585,1135 606,1146C621,1155 649,1175 688,1207C729,1241 758,1262 776,1271C794,1279 812,1283 829,1283C857,1283 881,1274 900,1256C919,1237 928,1214 928,1187C928,1157 917,1133 894,1114C871,1095 835,1086 787,1086l-38,1l-66,3C640,1090 597,1083 552,1068C587,1027 635,987 696,948C737,923 763,901 776,884C788,866 794,846 794,824C794,797 785,774 766,755C747,736 726,726 701,726C674,726 651,735 632,753C613,771 597,804 584,853C570,909 558,950 547,975C539,994 528,1014 513,1035C498,1015 486,995 477,974C470,959 460,926 447,875C430,814 416,777 405,763C386,739 360,727 326,727C297,727 273,736 255,753C236,770 227,791 227,817C227,863 259,907 322,948C369,979 398,999 409,1008C424,1021 444,1041 468,1068C433,1082 392,1089 346,1089l-47,-2l-50,-2C197,1085 159,1095 135,1114C110,1133 98,1159 98,1192C98,1217 107,1239 125,1256C142,1273 164,1282 191,1282C230,1282 279,1257 337,1208C368,1181 395,1162 416,1149C431,1140 455,1129 486,1118l1,31C487,1180 478,1219 461,1265C432,1340 418,1388 418,1409C418,1440 427,1465 446,1486C465,1507 487,1517 513,1517C540,1517 562,1507 581,1488C600,1469 609,1445 609,1417C609,1398 596,1352 569,1277C552,1228 541,1175 538,1118z"
   id="glyph235" />
<glyph
   unicode="+"
   horiz-adv-x="1241"
   d="M69,759l485,0l0,486l134,0l0,-486l485,0l0,-133l-485,0l0,-482l-134,0l0,482l-485,0z"
   id="glyph237" />
<glyph
   unicode=","
   horiz-adv-x="569"
   d="M169,-348l-36,48C262,-202 326,-116 326,-42C326,-31 324,-23 321,-18C317,-13 311,-11 304,-11l-22,-4C269,-17 259,-18 251,-18C221,-18 195,-6 173,17C150,40 139,69 139,102C139,135 150,162 173,185C196,208 225,219 260,219C304,219 341,202 370,168C399,133 414,86 414,27C414,-103 332,-228 169,-348z"
   id="glyph239" />
<glyph
   unicode="-"
   horiz-adv-x="682"
   d="M137,542l405,0l0,-152l-405,0z"
   id="glyph241" />
<glyph
   unicode="."
   horiz-adv-x="569"
   d="M285,218C318,218 347,206 370,182C393,158 405,129 405,96C405,61 393,32 370,8C347,-16 318,-28 284,-28C251,-28 222,-16 199,8C175,32 163,61 163,95C163,129 175,158 199,182C222,206 251,218 285,218z"
   id="glyph243" />
<glyph
   unicode="/"
   horiz-adv-x="569"
   d="M569,1479l-440,-1479l-129,0l441,1479z"
   id="glyph245" />
<glyph
   unicode="0"
   horiz-adv-x="1139"
   d="M572,1413C702,1413 810,1362 897,1261C1004,1136 1058,947 1058,694C1058,459 1011,280 918,157C825,34 712,-28 580,-28C453,-28 346,24 261,127C154,257 101,445 101,690C101,923 151,1109 252,1247C333,1358 439,1413 572,1413M578,1341C490,1341 421,1299 372,1215C323,1130 298,955 298,690C298,431 324,258 375,171C426,84 494,41 580,41C667,41 733,81 780,161C835,256 863,430 863,683C863,944 837,1119 785,1208C733,1297 664,1341 578,1341z"
   id="glyph247" />
<glyph
   unicode="1"
   horiz-adv-x="1139"
   d="M695,1387l0,-1248C695,120 702,106 715,96C734,82 758,75 786,75l194,0l0,-75l-719,0l0,75l166,0C462,75 487,83 504,100C521,116 529,138 529,165l0,943C529,1127 521,1144 506,1157C491,1170 471,1177 447,1177l-222,0l0,69C329,1259 413,1277 478,1300C543,1322 600,1351 649,1387z"
   id="glyph249" />
<glyph
   unicode="2"
   horiz-adv-x="1139"
   d="M776,160C826,160 862,173 883,199C904,225 929,297 956,415l68,0l-32,-415l-896,0l0,54l291,331C549,561 646,672 679,717C726,782 760,844 781,905C802,965 813,1020 813,1069C813,1151 790,1216 745,1263C700,1310 637,1333 556,1333C465,1333 391,1311 334,1268C277,1225 248,1179 248,1130C248,1113 252,1101 261,1092C269,1083 286,1076 313,1069C380,1053 414,1014 414,951C414,917 403,889 380,867C357,844 328,833 293,833C252,833 217,852 186,890C155,927 140,976 140,1037C140,1105 158,1167 193,1223C228,1278 280,1324 351,1360C422,1395 498,1413 579,1413C660,1413 735,1396 804,1361C873,1326 924,1281 959,1225C994,1168 1011,1107 1011,1040C1011,994 1002,947 985,900C968,853 942,808 909,767C852,696 793,635 732,584l-264,-222C401,306 353,258 322,219C291,180 443,160 776,160z"
   id="glyph251" />
<glyph
   unicode="3"
   horiz-adv-x="1139"
   d="M720,739C815,716 890,677 943,623C1011,554 1045,469 1045,368C1045,253 1004,161 923,92C830,12 710,-28 561,-28C472,-28 395,-13 331,16C266,45 218,85 186,135C154,185 138,241 138,304C138,355 150,395 175,424C200,453 231,468 268,468C302,468 329,457 350,435C371,412 381,382 381,343C381,318 376,298 365,281C354,264 336,248 309,233C280,218 266,203 266,189C266,169 276,147 297,122C317,97 347,77 387,62C426,47 476,39 537,39C642,39 719,65 770,117C820,168 845,251 845,365C845,484 824,569 781,620C738,670 674,695 589,695C566,695 538,692 504,687C477,683 457,681 445,681C425,681 410,685 399,694C388,702 382,712 382,725C382,739 387,750 398,758C408,765 425,769 448,769l55,-2l48,-2C636,765 699,787 742,830C785,873 806,940 806,1031C806,1142 786,1222 745,1269C704,1316 644,1339 563,1339C489,1339 430,1326 386,1299C342,1272 320,1248 320,1225C320,1210 333,1191 358,1166C394,1133 412,1098 412,1062C412,1035 402,1012 382,993C362,974 336,965 305,965C272,965 245,978 224,1003C203,1028 192,1064 192,1109C192,1180 217,1242 268,1297C340,1374 443,1413 577,1413C702,1413 802,1379 877,1312C952,1245 989,1161 989,1062C989,991 969,929 929,877C888,825 819,779 720,739z"
   id="glyph253" />
<glyph
   unicode="4"
   horiz-adv-x="1139"
   d="M780,1387l65,0l0,-946l230,0l0,-85l-230,0l0,-213C845,124 852,109 867,98C888,83 913,75 941,75l85,0l0,-75l-555,0l0,75l103,0C609,75 634,82 651,97C667,112 675,133 675,161l0,195l-566,0l0,96M675,1116l-483,-675l483,0z"
   id="glyph255" />
<glyph
   unicode="5"
   horiz-adv-x="1139"
   d="M277,1413C446,1374 583,1355 690,1355C740,1355 787,1360 831,1370C875,1379 908,1390 930,1403C941,1409 949,1412 952,1412C959,1412 962,1407 962,1397C962,1374 947,1343 917,1305C887,1266 846,1236 795,1213C743,1190 683,1179 616,1179C538,1179 445,1191 337,1215l-33,-382C355,858 403,877 449,890C495,903 539,909 580,909C711,909 821,866 910,779C999,692 1043,585 1043,458C1043,317 996,200 901,109C806,18 684,-28 533,-28C418,-28 324,5 252,71C179,136 143,214 143,305C143,360 155,402 178,432C201,461 230,476 266,476C301,476 330,464 353,441C375,417 386,386 386,348C386,319 381,297 370,281C359,265 338,252 309,241C280,230 265,217 265,202C265,181 275,157 295,132C315,106 345,85 386,69C426,52 472,44 524,44C626,44 704,76 758,139C811,202 838,305 838,448C838,578 810,673 753,733C696,793 624,823 536,823C496,823 456,816 416,801C376,786 336,764 296,735C291,688 283,657 271,642C259,626 244,618 225,618C212,618 201,623 193,632C185,641 181,654 181,671C181,700 195,729 222,758C230,767 236,774 239,781l23,294C271,1191 276,1304 277,1413z"
   id="glyph257" />
<glyph
   unicode="6"
   horiz-adv-x="1139"
   d="M326,656C378,725 433,775 490,805C547,835 610,850 679,850C790,850 883,813 958,738C1033,663 1070,568 1070,453C1070,315 1026,200 937,109C848,18 739,-28 608,-28C516,-28 434,-3 362,46C290,95 231,171 186,275C140,379 117,500 117,639C117,789 145,925 201,1047C257,1169 329,1261 416,1322C503,1383 593,1413 688,1413C785,1413 868,1386 936,1333C993,1290 1021,1238 1021,1177C1021,1136 1009,1103 984,1077C959,1051 928,1038 892,1038C859,1038 830,1049 807,1071C783,1093 771,1119 771,1149C771,1169 779,1192 795,1217C810,1240 817,1259 817,1272C817,1291 808,1306 790,1318C766,1333 733,1341 691,1341C626,1341 567,1321 514,1280C461,1239 416,1170 379,1071C342,972 323,860 323,737C323,719 324,692 326,656M624,752C541,752 473,722 420,662C367,601 340,516 340,407C340,288 366,198 417,135C468,72 534,41 613,41C692,41 755,71 803,130C851,189 875,278 875,396C875,521 853,612 809,668C764,724 703,752 624,752z"
   id="glyph259" />
<glyph
   unicode="7"
   horiz-adv-x="1139"
   d="M227,1412C292,1395 363,1387 439,1387l622,0l0,-46C970,1180 901,1045 856,934C811,823 776,716 753,615C730,514 714,396 707,261C700,150 694,81 688,55C682,28 670,8 652,-6C633,-21 609,-28 580,-28C547,-28 521,-17 502,6C483,29 474,64 474,113C474,156 482,211 497,276C512,341 547,438 602,567C675,740 738,877 791,976l138,254l-542,0C347,1230 317,1216 298,1188C278,1160 254,1076 227,937l-72,0z"
   id="glyph261" />
<glyph
   unicode="8"
   horiz-adv-x="1139"
   d="M773,785C880,746 957,696 1004,634C1051,571 1075,496 1075,408C1075,301 1041,207 972,127C883,24 757,-28 593,-28C448,-28 334,7 250,77C166,146 124,233 124,337C124,415 148,483 197,542C245,600 328,649 447,690C272,765 184,882 184,1039C184,1141 224,1229 303,1303C382,1376 482,1413 603,1413C686,1413 759,1399 821,1370C882,1341 929,1302 962,1253C994,1204 1010,1152 1010,1098C1010,973 931,868 773,785M696,811C766,851 813,891 837,930C861,969 873,1020 873,1083C873,1166 849,1231 802,1276C755,1321 686,1344 596,1344C509,1344 441,1323 392,1281C343,1238 319,1183 319,1115C319,1048 340,994 383,954C425,914 529,866 696,811M522,662C427,622 362,577 325,527C288,477 270,416 270,343C270,248 298,175 354,123C409,70 489,44 594,44C705,44 791,70 852,123C913,175 944,244 944,330C944,408 918,467 865,507C812,547 697,599 522,662z"
   id="glyph263" />
<glyph
   unicode="9"
   horiz-adv-x="1139"
   d="M860,718C817,653 766,604 708,571C650,538 585,521 513,521C413,521 322,556 241,626C159,696 118,799 118,935C118,1068 163,1181 254,1274C344,1367 452,1413 577,1413C715,1413 830,1356 922,1241C1014,1126 1060,965 1060,758C1060,586 1035,441 984,323C933,204 865,116 781,59C697,1 602,-28 497,-28C395,-28 315,-5 258,40C200,85 171,138 171,201C171,242 183,276 207,301C230,326 260,339 296,339C329,339 356,328 379,306C402,284 413,258 413,227C413,205 403,181 382,154C369,137 363,123 363,111C363,92 374,76 396,63C418,49 453,42 502,42C571,42 632,61 685,100C738,138 780,201 813,289C846,376 862,490 862,629M580,1341C505,1341 444,1310 396,1248C348,1185 324,1091 324,966C324,851 348,766 396,710C444,653 507,625 584,625C661,625 725,655 778,716C830,777 856,862 856,971C856,1084 829,1174 775,1241C720,1308 655,1341 580,1341z"
   id="glyph265" />
<glyph
   unicode=":"
   horiz-adv-x="569"
   d="M287,965C321,965 350,953 373,930C396,907 408,878 408,844C408,809 397,781 374,758C351,735 322,723 288,723C254,723 225,735 202,759C178,782 166,811 166,844C166,877 178,905 202,929C225,953 254,965 287,965M289,218C322,218 351,206 375,183C398,159 410,130 410,96C410,61 398,32 375,8C351,-16 322,-28 289,-28C256,-28 227,-16 203,8C178,32 166,61 166,94C166,129 178,158 202,182C226,206 255,218 289,218z"
   id="glyph267" />
<glyph
   unicode=";"
   horiz-adv-x="569"
   d="M289,965C323,965 352,953 375,930C398,907 409,878 409,843C409,810 397,782 374,759C351,736 323,724 290,724C255,724 226,736 203,759C179,782 167,810 167,842C167,876 179,905 202,929C225,953 254,965 289,965M183,-348l-34,47C277,-205 341,-117 341,-36C341,-19 334,-11 320,-11C315,-11 307,-13 297,-16C284,-19 272,-21 263,-21C234,-21 209,-9 187,15C165,39 154,68 154,102C154,134 166,161 189,184C212,207 240,218 274,218C317,218 354,201 384,167C414,132 429,87 429,32C429,-105 347,-231 183,-348z"
   id="glyph269" />
<glyph
   unicode="&lt;"
   horiz-adv-x="1241"
   d="M1171,170l-1101,464l0,120l1101,463l0,-144l-922,-378l922,-380z"
   id="glyph271" />
<glyph
   unicode="="
   horiz-adv-x="1241"
   d="M69,1001l1104,0l0,-134l-1104,0M69,526l1104,0l0,-133l-1104,0z"
   id="glyph273" />
<glyph
   unicode="&gt;"
   horiz-adv-x="1241"
   d="M70,1217l1101,-464l0,-120l-1101,-463l0,144l922,379l-922,380z"
   id="glyph275" />
<glyph
   unicode="?"
   horiz-adv-x="909"
   d="M443,432l-53,0C390,511 394,573 403,618C411,663 422,699 435,726C448,752 481,800 534,870C576,925 606,976 623,1025C640,1073 648,1126 648,1184C648,1263 626,1326 582,1374C537,1422 483,1446 419,1446C364,1446 318,1432 281,1405C244,1378 225,1350 225,1321C225,1305 238,1287 264,1267C303,1236 323,1203 323,1167C323,1135 313,1108 292,1087C271,1066 245,1055 214,1055C177,1055 145,1070 120,1100C94,1130 81,1169 81,1218C81,1295 116,1364 187,1425C258,1486 347,1516 454,1516C564,1516 655,1482 727,1414C798,1346 834,1263 834,1165C834,1102 822,1046 797,995C778,957 731,904 656,835C558,747 499,682 478,640C457,598 445,529 443,432M419,216C452,216 481,204 504,181C527,158 539,130 539,97C539,62 527,33 504,9C481,-16 452,-28 419,-28C386,-28 357,-16 334,8C311,32 299,62 299,97C299,130 311,159 334,182C357,205 386,216 419,216z"
   id="glyph277" />
<glyph
   unicode="@"
   horiz-adv-x="1509"
   d="M1131,1017l-121,-411l-44,-153C957,416 953,387 953,364C953,341 959,324 971,312C982,299 997,293 1016,293C1061,293 1110,314 1163,357C1216,399 1261,466 1300,558C1339,649 1358,744 1358,843C1358,936 1335,1023 1288,1104C1241,1185 1177,1248 1098,1291C1019,1334 926,1355 821,1355C691,1355 571,1322 461,1255C350,1188 263,1096 199,977C135,858 103,724 103,577C103,438 130,318 185,218C239,118 317,39 420,-20C523,-79 636,-108 761,-108C910,-108 1045,-67 1166,15C1286,97 1374,208 1430,349l60,0C1443,198 1352,73 1217,-25C1082,-123 928,-172 755,-172C541,-172 364,-101 223,42C82,184 12,364 12,581C12,734 48,875 120,1003C191,1131 289,1231 412,1304C535,1377 669,1413 814,1413C936,1413 1043,1389 1134,1340C1225,1291 1296,1222 1347,1133C1398,1043 1423,942 1423,830C1423,680 1380,542 1293,417C1206,292 1095,229 958,229C913,229 879,239 857,260C834,281 823,310 823,349C823,380 828,421 839,470C760,374 694,310 643,278C592,245 545,229 504,229C462,229 426,247 396,282C365,317 350,364 350,424C350,510 377,603 431,703C484,803 549,881 625,938C701,995 766,1023 821,1023C860,1023 892,1013 916,994C940,974 956,944 965,905l28,94M832,983C760,983 685,917 607,785C529,652 490,542 490,453C490,415 500,385 519,364C538,342 561,331 590,331C626,331 667,350 712,388C773,440 826,512 869,603C912,694 934,777 934,854C934,896 925,928 906,950C887,972 862,983 832,983z"
   id="glyph279" />
<glyph
   unicode="A"
   horiz-adv-x="1479"
   d="M715,1510l67,0l531,-1353C1334,102 1378,75 1444,75l46,0l0,-75l-590,0l0,75l47,0C1008,75 1052,82 1077,95C1094,104 1103,119 1103,138C1103,149 1101,161 1096,174l-123,314l-584,0l-69,-180C302,260 293,222 293,194C293,161 308,133 339,110C369,87 413,75 471,75l50,0l0,-75l-536,0l0,75C42,75 88,88 121,113C154,138 185,185 213,255M686,1225l-265,-659l523,0z"
   id="glyph281" />
<glyph
   unicode="B"
   horiz-adv-x="1479"
   d="M97,1479l771,0C1019,1479 1135,1446 1216,1379C1296,1312 1336,1229 1336,1128C1336,1044 1308,973 1252,914C1196,855 1112,809 999,775C1138,746 1243,700 1313,637C1382,574 1417,494 1417,398C1417,325 1397,260 1358,203C1318,146 1252,98 1160,59C1067,20 962,0 845,0l-748,0l0,75l122,0C256,75 283,81 300,93C317,105 325,119 325,134l0,1185C325,1347 317,1368 300,1383C283,1397 259,1404 227,1404l-130,0M539,799l280,0C905,799 974,824 1025,875C1076,926 1101,1009 1101,1124C1101,1195 1089,1251 1065,1291C1040,1331 1005,1360 959,1379C912,1397 832,1406 718,1406C637,1406 587,1400 568,1389C549,1377 539,1356 539,1327M539,725l0,-570C539,128 547,108 563,95C578,82 606,75 647,75l179,0C945,75 1032,101 1089,154C1146,206 1174,287 1174,398C1174,499 1145,579 1086,638C1027,696 946,725 843,725z"
   id="glyph283" />
<glyph
   unicode="C"
   horiz-adv-x="1479"
   d="M1185,1364l69,143l63,0l26,-595l-67,0C1232,1079 1177,1203 1110,1282C1027,1381 929,1431 814,1431C690,1431 589,1376 511,1265C433,1154 394,967 394,703C394,481 439,312 528,195C604,96 711,47 848,47C968,47 1069,86 1150,163C1231,240 1284,356 1309,511l71,0C1359,335 1299,200 1199,105C1099,10 973,-37 821,-37C698,-37 585,-6 482,56C379,118 296,207 235,324C173,440 142,567 142,706C142,853 174,992 238,1121C301,1250 383,1348 482,1413C581,1478 688,1510 803,1510C867,1510 929,1499 989,1477C1049,1455 1114,1417 1185,1364z"
   id="glyph285" />
<glyph
   unicode="D"
   horiz-adv-x="1593"
   d="M70,1479l764,0C947,1479 1044,1459 1123,1419C1222,1368 1306,1284 1375,1166C1444,1048 1478,908 1478,747C1478,614 1457,494 1416,387C1385,305 1337,233 1272,172C1207,111 1127,65 1034,34C964,11 871,0 754,0l-684,0l0,75l140,0C245,75 270,81 284,92C297,103 304,121 304,145l0,1191C304,1357 297,1373 282,1386C267,1398 247,1404 221,1404l-151,0M606,1404C576,1404 554,1398 540,1385C525,1372 518,1353 518,1328l0,-1180C518,124 526,106 543,94C560,81 588,75 628,75l126,0C867,75 965,104 1050,162C1105,201 1147,255 1176,325C1215,420 1235,550 1235,717C1235,964 1192,1144 1106,1259C1033,1356 922,1404 774,1404z"
   id="glyph287" />
<glyph
   unicode="E"
   horiz-adv-x="1479"
   d="M134,1479l1172,0l28,-499l-67,0C1240,1137 1198,1247 1141,1310C1083,1373 1008,1404 915,1404l-290,0C602,1404 584,1398 572,1385C560,1372 554,1353 554,1327l0,-527l127,0C749,800 804,824 847,873C889,922 912,996 915,1097l69,0l0,-685l-69,0C912,525 889,607 846,656C803,705 744,729 670,729l-116,0l0,-588C554,120 561,103 576,92C590,81 614,75 647,75l229,0C1125,75 1268,234 1306,551l72,0l-25,-551l-1219,0l0,75l101,0C274,75 302,82 318,96C334,109 342,129 342,155l0,1172C342,1353 335,1372 321,1385C307,1398 285,1404 255,1404l-121,0z"
   id="glyph289" />
<glyph
   unicode="F"
   horiz-adv-x="1366"
   d="M106,1479l1203,0l20,-512l-69,0C1229,1143 1186,1258 1131,1311C1068,1373 977,1404 860,1404l-237,0C600,1404 583,1399 572,1388C561,1377 556,1360 556,1338l0,-535l127,0C754,803 810,826 852,873C894,920 917,992 920,1089l72,0l0,-667l-72,0C915,533 893,612 852,659C811,706 755,730 683,730l-127,0l0,-564C556,133 564,109 580,96C596,82 624,75 663,75l154,0l0,-75l-711,0l0,75l152,0C289,75 311,81 324,94C337,106 343,126 343,154l0,1176C343,1357 336,1376 323,1387C309,1398 285,1404 251,1404l-145,0z"
   id="glyph291" />
<glyph
   unicode="G"
   horiz-adv-x="1593"
   d="M1151,1363l82,147l67,0l37,-590l-65,0C1222,1090 1163,1213 1095,1289C1008,1386 909,1434 797,1434C711,1434 634,1410 566,1361C498,1312 446,1239 410,1142C373,1045 355,908 355,731C355,560 373,426 410,329C446,232 496,161 560,116C624,70 699,47 785,47C902,47 992,80 1056,145C1119,210 1151,295 1151,398l0,139C1151,559 1143,576 1126,588C1109,600 1081,606 1042,606l-125,0l0,70l620,0l0,-70l-84,0C1416,606 1389,600 1373,587C1357,574 1349,555 1349,530l0,-565l-66,0C1259,53 1234,137 1208,218C1158,136 1099,75 1030,34C961,-7 882,-28 795,-28C670,-28 555,4 449,68C342,132 258,222 197,339C135,455 104,586 104,733C104,880 135,1012 197,1129C259,1246 344,1338 452,1407C559,1476 668,1510 778,1510C841,1510 901,1500 958,1479C1015,1458 1079,1419 1151,1363z"
   id="glyph293" />
<glyph
   unicode="H"
   horiz-adv-x="1706"
   d="M96,1479l631,0l0,-75l-116,0C570,1404 544,1397 532,1383C519,1368 513,1333 513,1278l0,-456l677,0l0,456C1190,1335 1184,1371 1173,1384C1161,1397 1133,1404 1090,1404l-108,0l0,75l628,0l0,-75l-115,0C1466,1404 1446,1400 1435,1393C1423,1386 1413,1373 1406,1355C1402,1344 1400,1314 1400,1266l0,-1064C1400,151 1404,120 1413,109C1430,86 1462,75 1508,75l102,0l0,-75l-628,0l0,75l108,0C1133,75 1162,87 1177,110C1186,123 1190,156 1190,210l0,514l-677,0l0,-522C513,150 517,119 525,108C542,86 570,75 611,75l116,0l0,-75l-631,0l0,75l121,0C238,75 255,79 268,88C281,97 290,109 296,125C299,136 301,164 301,210l0,1068C301,1333 295,1368 283,1383C270,1397 243,1404 202,1404l-106,0z"
   id="glyph295" />
<glyph
   unicode="I"
   horiz-adv-x="834"
   d="M76,1479l682,0l0,-75l-117,0C589,1404 556,1398 543,1385C529,1372 522,1344 522,1302l0,-1120C522,137 528,109 540,98C556,83 585,75 627,75l131,0l0,-75l-682,0l0,75l129,0C250,75 280,82 293,95C306,108 313,137 313,182l0,1120C313,1345 307,1371 295,1381C276,1396 242,1404 192,1404l-116,0z"
   id="glyph297" />
<glyph
   unicode="J"
   horiz-adv-x="1139"
   d="M423,1479l654,0l0,-75l-93,0C947,1404 921,1397 906,1384C890,1371 882,1351 882,1326l0,-959C882,293 864,226 828,167C792,107 739,60 670,25C601,-10 522,-28 435,-28C316,-28 219,7 144,77C69,146 31,231 31,332C31,407 50,466 88,511C126,556 173,578 228,578C273,578 311,564 340,535C369,506 384,469 384,424C384,385 372,353 348,327C324,300 296,287 265,287C253,287 236,290 215,297C197,302 185,305 179,305C168,305 159,300 152,291C145,282 141,268 141,249C141,199 166,154 217,113C267,72 329,51 402,51C485,51 551,80 599,138C647,195 671,276 671,379l0,947C671,1352 662,1372 645,1385C627,1398 597,1404 554,1404l-131,0z"
   id="glyph299" />
<glyph
   unicode="K"
   horiz-adv-x="1593"
   d="M83,1479l676,0l0,-75l-144,0C584,1404 561,1396 544,1380C527,1364 519,1344 519,1319l0,-687l557,595C1108,1262 1124,1294 1124,1325C1124,1348 1113,1367 1091,1382C1069,1397 1033,1404 983,1404l-41,0l0,75l607,0l0,-75l-47,0C1461,1404 1417,1392 1368,1368C1319,1344 1274,1311 1233,1268l-343,-357l491,-724C1408,146 1437,118 1466,101C1495,84 1530,75 1570,75l54,0l0,-75l-667,0l0,75l76,0C1088,75 1125,80 1144,89C1162,98 1171,110 1171,124C1171,137 1167,149 1159,162l-408,600l-232,-249l0,-364C519,126 526,110 539,99C560,83 586,75 615,75l144,0l0,-75l-676,0l0,75l130,0C246,75 271,82 287,96C303,109 311,127 311,149l0,1181C311,1353 302,1372 284,1385C266,1398 236,1404 193,1404l-110,0z"
   id="glyph301" />
<glyph
   unicode="L"
   horiz-adv-x="1366"
   d="M64,1479l685,0l0,-75l-164,0C559,1404 540,1397 528,1384C515,1370 509,1348 509,1319l0,-1167C509,124 517,104 533,93C548,81 580,75 627,75l208,0C946,75 1036,112 1107,186C1177,259 1228,387 1260,569l70,0l-34,-569l-1232,0l0,75l121,0C226,75 255,83 272,99C289,114 297,139 297,174l0,1155C297,1354 290,1372 276,1385C262,1398 241,1404 214,1404l-150,0z"
   id="glyph303" />
<glyph
   unicode="M"
   horiz-adv-x="1933"
   d="M34,1479l493,0l441,-1168l407,1168l504,0l0,-75l-123,0C1713,1404 1684,1398 1669,1385C1654,1372 1646,1350 1646,1319l0,-1171C1646,125 1655,107 1673,94C1691,81 1722,75 1766,75l113,0l0,-75l-676,0l0,75l126,0C1365,75 1392,82 1409,96C1426,109 1435,127 1435,148l0,1256l-489,-1404l-68,0l-526,1398l0,-1075C352,259 360,211 376,180C392,148 415,124 445,107C474,90 523,79 592,75l0,-75l-558,0l0,75C125,81 187,101 220,134C253,167 269,226 269,311l0,1020C269,1356 261,1375 246,1387C231,1398 202,1404 160,1404l-126,0z"
   id="glyph305" />
<glyph
   unicode="N"
   horiz-adv-x="1669"
   d="M84,1479l353,0l892,-1162l0,841C1329,1243 1310,1305 1271,1346C1236,1383 1183,1403 1113,1404l0,75l517,0l0,-75C1577,1404 1538,1397 1512,1382C1486,1367 1463,1341 1444,1302C1425,1263 1415,1221 1415,1175l0,-1175l-94,0l-923,1209l0,-892C398,236 418,176 459,137C500,97 563,76 648,75l0,-75l-564,0l0,75C155,78 211,101 252,145C293,188 314,242 314,305l0,1003l-17,18C264,1362 240,1383 226,1390C207,1399 182,1404 151,1404l-67,0z"
   id="glyph307" />
<glyph
   unicode="O"
   horiz-adv-x="1593"
   d="M784,1510C909,1510 1026,1477 1135,1412C1244,1346 1329,1254 1391,1137C1452,1019 1483,886 1483,739C1483,592 1452,459 1390,340C1328,221 1243,129 1135,63C1026,-4 911,-37 790,-37C671,-37 560,-4 456,61C352,126 269,219 206,340C143,461 111,595 111,742C111,887 142,1019 203,1136C264,1253 347,1344 453,1411C559,1477 669,1510 784,1510M800,1433C670,1433 565,1379 484,1271C403,1163 363,987 363,743C363,478 404,295 487,194C570,93 672,42 794,42C879,42 954,65 1019,111C1084,157 1135,230 1174,330C1212,430 1231,561 1231,724C1231,901 1213,1040 1177,1140C1141,1239 1090,1313 1023,1361C956,1409 882,1433 800,1433z"
   id="glyph309" />
<glyph
   unicode="P"
   horiz-adv-x="1366"
   d="M80,1479l729,0C974,1479 1099,1442 1186,1367C1273,1292 1316,1195 1316,1074C1316,953 1276,861 1196,798C1086,711 950,667 789,667l-264,0l0,-505C525,133 532,112 546,99C565,83 590,75 621,75l168,0l0,-75l-709,0l0,75l148,0C257,75 279,81 293,93C306,104 313,120 313,140l0,1179C313,1349 304,1371 287,1384C270,1397 237,1404 189,1404l-109,0M525,740l201,0C853,740 945,767 1002,820C1058,873 1086,960 1086,1082C1086,1167 1073,1233 1048,1279C1023,1324 986,1358 937,1380C888,1402 807,1413 695,1413C621,1413 574,1406 555,1392C535,1378 525,1354 525,1319z"
   id="glyph311" />
<glyph
   unicode="Q"
   horiz-adv-x="1593"
   d="M1182,92C1193,65 1204,27 1217,-20C1240,-109 1263,-166 1284,-193C1305,-220 1330,-233 1357,-233C1382,-233 1404,-219 1423,-190C1441,-162 1451,-115 1452,-49l60,0C1511,-169 1488,-257 1442,-314C1396,-371 1336,-399 1262,-399C1193,-399 1138,-371 1095,-316C1052,-261 1023,-156 1009,0C972,-9 936,-16 901,-21C866,-26 833,-28 802,-28C678,-28 564,4 459,69C354,133 270,225 209,346C147,466 116,602 116,753C116,968 186,1151 325,1303C452,1441 609,1510 797,1510C923,1510 1038,1478 1142,1415C1246,1351 1329,1260 1392,1141C1455,1022 1486,888 1486,741C1486,606 1462,486 1413,381C1364,276 1287,179 1182,92M1132,230C1168,298 1194,372 1211,451C1228,530 1236,630 1236,749C1236,917 1218,1050 1181,1148C1144,1245 1093,1317 1026,1364C959,1411 884,1434 800,1434C717,1434 643,1411 578,1364C512,1317 461,1245 424,1146C387,1047 368,912 368,742C368,622 379,519 401,433C423,347 457,265 504,188C503,219 502,243 502,262C502,345 529,413 582,466C635,519 704,546 790,546C877,546 949,517 1008,459C1052,415 1093,339 1132,230M1009,103C1008,223 992,310 962,364C924,433 866,468 787,468C724,468 673,448 633,408C593,368 573,316 573,253C573,190 598,131 647,75C694,54 744,44 796,44C836,44 874,49 909,59C944,69 978,84 1009,103z"
   id="glyph313" />
<glyph
   unicode="R"
   horiz-adv-x="1479"
   d="M52,1479l764,0C964,1479 1079,1445 1161,1378C1242,1311 1283,1222 1283,1113C1283,1048 1267,990 1235,939C1202,888 1156,847 1095,817C1034,786 938,764 807,751C902,725 968,700 1004,675C1040,650 1069,617 1091,578C1112,538 1137,457 1165,335C1185,248 1206,188 1229,156C1246,131 1265,119 1285,119C1306,119 1325,134 1343,165C1360,195 1371,248 1375,325l68,0C1430,98 1347,-15 1192,-15C1143,-15 1101,-3 1066,22C1030,47 1003,83 985,131C971,167 955,261 938,414C928,503 912,566 891,603C869,640 835,670 789,693C743,716 688,727 624,727l-121,0l0,-581C503,121 509,104 522,94C538,81 563,75 597,75l142,0l0,-75l-687,0l0,75l145,0C229,75 253,81 268,94C283,107 290,124 290,146l0,1182C290,1353 282,1372 267,1385C252,1398 228,1404 197,1404l-145,0M503,799l175,0C795,799 887,821 954,866C1020,910 1053,989 1053,1102C1053,1180 1041,1242 1016,1287C991,1332 958,1363 917,1380C876,1397 796,1405 677,1405C598,1405 550,1400 531,1389C512,1378 503,1359 503,1332z"
   id="glyph315" />
<glyph
   unicode="S"
   horiz-adv-x="1290"
   d="M947,1367l90,129l73,0l6,-539l-66,0C1009,1122 948,1243 867,1319C786,1395 692,1433 587,1433C499,1433 427,1407 371,1354C315,1301 287,1237 287,1161C287,1114 298,1072 319,1037C340,1001 372,972 415,950C457,927 537,903 654,878C819,842 934,806 1001,769C1067,732 1116,686 1149,631C1182,575 1198,510 1198,435C1198,302 1153,191 1064,104C974,16 858,-28 716,-28C563,-28 431,21 318,120l-113,-138l-72,0l0,573l72,0C233,397 296,272 393,181C490,90 600,44 722,44C821,44 901,73 964,132C1026,190 1057,261 1057,344C1057,391 1045,433 1022,469C999,504 962,534 911,559C860,583 761,612 612,647C449,686 337,729 278,777C195,845 153,941 153,1066C153,1196 195,1303 278,1386C361,1469 467,1510 596,1510C658,1510 717,1499 773,1477C829,1455 887,1418 947,1367z"
   id="glyph317" />
<glyph
   unicode="T"
   horiz-adv-x="1366"
   d="M90,1479l1200,0l29,-559l-69,0C1205,1249 1086,1413 894,1413C855,1413 829,1406 815,1393C800,1380 793,1358 793,1327l0,-1182C793,121 800,103 814,92C828,81 851,75 883,75l149,0l0,-75l-687,0l0,75l170,0C538,75 555,81 567,92C579,103 585,118 585,137l0,1199C585,1361 577,1381 562,1394C547,1407 522,1413 488,1413C391,1413 311,1367 246,1276C193,1201 154,1082 131,920l-73,0z"
   id="glyph319" />
<glyph
   unicode="U"
   horiz-adv-x="1669"
   d="M54,1479l683,0l0,-75l-137,0C563,1404 538,1398 523,1386C508,1374 501,1356 501,1331l0,-835C501,409 509,343 524,298C547,232 588,179 649,140C709,101 788,81 885,81C1020,81 1122,116 1193,186C1264,255 1299,348 1299,465l0,679C1299,1204 1295,1250 1287,1281C1278,1312 1266,1336 1251,1353C1235,1370 1215,1383 1191,1392C1167,1400 1127,1404 1071,1404l0,75l559,0l0,-75l-40,0C1527,1404 1481,1387 1450,1354C1419,1320 1404,1271 1404,1207l0,-727C1404,321 1359,200 1268,115C1166,20 1030,-28 861,-28C714,-28 599,-7 515,35C431,76 370,136 332,214C303,273 289,348 289,438l0,893C289,1354 281,1372 266,1385C250,1398 226,1404 195,1404l-141,0z"
   id="glyph321" />
<glyph
   unicode="V"
   horiz-adv-x="1479"
   d="M-9,1479l623,0l0,-75l-108,0C461,1404 431,1399 415,1388C399,1377 391,1363 391,1345C391,1331 397,1311 409,1284l8,-21l389,-991l345,946C1158,1237 1161,1259 1161,1286C1161,1323 1150,1352 1129,1373C1107,1394 1077,1404 1039,1404l-101,0l0,75l546,0l0,-75l-44,0C1407,1404 1374,1388 1341,1357C1308,1326 1278,1274 1251,1202l-458,-1237l-73,0l-522,1322C180,1331 159,1362 136,1379C112,1396 80,1404 39,1404l-48,0z"
   id="glyph323" />
<glyph
   unicode="W"
   horiz-adv-x="2009"
   d="M35,1479l494,0l0,-75l-35,0C442,1404 409,1400 395,1392C380,1384 373,1371 373,1354C373,1342 378,1323 388,1297l6,-19l301,-939l264,867C928,1305 905,1362 889,1379C872,1396 840,1404 791,1404l-90,0l0,75l617,0l0,-75l-64,0C1198,1404 1162,1400 1145,1391C1128,1382 1120,1368 1120,1350C1120,1336 1122,1323 1126,1311l307,-972l252,841C1695,1213 1700,1244 1700,1274C1700,1319 1690,1352 1670,1373C1649,1394 1619,1404 1578,1404l-46,0l0,75l464,0l0,-75C1955,1399 1923,1389 1899,1375C1875,1360 1854,1340 1837,1313C1819,1286 1801,1242 1783,1180l-364,-1215l-70,0l-342,1085l-324,-1085l-75,0l-416,1313C175,1329 157,1363 136,1380C115,1396 81,1404 35,1404z"
   id="glyph325" />
<glyph
   unicode="X"
   horiz-adv-x="1442"
   d="M37,1479l607,0l0,-75l-71,0C522,1404 488,1400 471,1391C454,1382 445,1371 445,1358C445,1348 455,1329 474,1301l283,-416l217,330C1002,1258 1016,1292 1016,1318C1016,1344 1004,1365 980,1380C956,1395 911,1403 845,1404l0,75l537,0l0,-75C1323,1404 1277,1394 1243,1374C1197,1347 1155,1305 1116,1248l-304,-444l467,-674C1292,111 1309,97 1329,89C1348,80 1382,76 1431,75l0,-75l-586,0l0,75l81,0C965,75 993,80 1008,90C1023,99 1030,111 1030,126C1030,141 1020,164 1000,193l-302,440l-224,-322C439,260 421,216 421,177C421,144 431,119 452,102C473,84 503,75 543,75l58,0l0,-75l-564,0l0,75C96,77 148,93 195,122C241,151 286,198 331,263l313,452l-404,580C208,1341 180,1371 155,1384C130,1397 91,1403 37,1404z"
   id="glyph327" />
<glyph
   unicode="Y"
   horiz-adv-x="1442"
   d="M-12,1479l648,0l0,-75l-72,0C504,1404 465,1399 447,1390C429,1381 420,1368 420,1351C420,1334 425,1318 434,1304l376,-583l270,497C1092,1240 1098,1264 1098,1290C1098,1325 1087,1352 1064,1373C1041,1394 1009,1404 967,1404l-69,0l0,75l564,0l0,-75C1397,1404 1346,1393 1309,1370C1272,1347 1236,1305 1201,1242l-341,-625l0,-468C860,124 867,107 881,96C900,82 929,75 967,75l127,0l0,-75l-679,0l0,75l134,0C585,75 611,82 627,95C643,108 651,126 651,149l0,455l-459,715C172,1350 149,1371 122,1384C95,1396 51,1403 -12,1404z"
   id="glyph329" />
<glyph
   unicode="Z"
   horiz-adv-x="1251"
   d="M150,1479l1007,0l0,-75l-845,-1329l321,0C725,75 800,90 859,120C918,150 965,195 1002,255C1038,314 1071,414 1101,555l70,0l-27,-555l-1070,0l0,67l853,1337l-305,0C539,1404 474,1394 428,1375C365,1349 314,1303 275,1236C236,1169 208,1079 192,967l-70,0z"
   id="glyph331" />
<glyph
   unicode="\"
   horiz-adv-x="1241"
   d="M163,1479l1044,-1479l-129,0l-1044,1479z"
   id="glyph333" />
<glyph
   unicode="^"
   horiz-adv-x="1241"
   d="M639,1413l431,-727l-129,0l-319,558l-321,-558l-129,0l437,727z"
   id="glyph335" />
<glyph
   unicode="_"
   horiz-adv-x="1024"
   d="M-12,-154l1048,0l0,-102l-1048,0z"
   id="glyph337" />
<glyph
   unicode="a"
   horiz-adv-x="1139"
   d="M1057,103l36,-56C1044,-3 990,-28 931,-28C886,-28 848,-16 817,9C786,34 758,77 735,139C672,72 616,28 568,6C520,-17 462,-28 395,-28C299,-28 226,-7 176,34C126,75 101,128 101,193C101,290 158,371 273,436C387,500 539,543 729,564l0,142C729,757 709,800 668,836C627,872 576,890 513,890C455,890 405,878 363,854C333,836 318,818 318,801C318,791 326,775 342,754C361,727 371,704 371,683C371,653 361,629 342,610C323,591 297,581 266,581C233,581 205,592 183,615C160,638 149,667 149,702C149,768 186,828 261,883C335,938 432,965 553,965C664,965 749,941 808,893C867,844 896,785 896,716l0,-512C896,159 903,125 918,104C933,82 952,71 975,71C1001,71 1028,82 1057,103M729,498C560,475 440,437 369,384C316,344 290,287 290,214C290,163 304,123 331,94C358,65 394,50 438,50C517,50 585,80 643,140C700,199 729,274 729,364z"
   id="glyph339" />
<glyph
   unicode="b"
   horiz-adv-x="1139"
   d="M357,1496l0,-696C396,855 440,897 488,924C536,951 588,965 645,965C755,965 848,922 924,836C1000,750 1038,637 1038,496C1038,343 997,220 916,127C834,33 733,-14 612,-14C555,-14 503,-3 456,20C409,43 361,81 312,135C274,74 237,25 202,-14l-40,14C181,77 190,157 190,240l0,1059C190,1332 179,1357 156,1376C133,1395 100,1404 58,1404l-42,0l0,75M609,877C534,877 472,844 425,779C378,713 354,604 354,453C354,309 377,206 424,144C471,82 532,51 607,51C675,51 730,82 771,143C823,220 849,331 849,474C849,615 826,718 781,782C735,845 678,877 609,877z"
   id="glyph341" />
<glyph
   unicode="c"
   horiz-adv-x="909"
   d="M783,278l65,-19C796,68 681,-28 504,-28C374,-28 268,15 185,101C102,187 61,301 61,444C61,609 106,738 197,829C288,920 394,965 517,965C609,965 685,940 745,889C805,838 835,782 835,720C835,683 824,652 802,628C779,603 753,591 722,591C692,591 667,601 646,622C625,643 615,668 615,697C615,726 626,754 649,781C660,794 665,804 665,811C665,830 652,849 626,868C600,886 565,895 520,895C439,895 377,865 335,806C275,720 245,607 245,466C245,332 272,231 325,162C378,93 446,58 529,58C643,58 728,131 783,278z"
   id="glyph343" />
<glyph
   unicode="d"
   horiz-adv-x="1176"
   d="M598,1479l366,17l0,-1282C964,164 974,128 993,107C1012,86 1040,75 1078,75l65,0l0,-75l-320,0l-24,191C761,123 717,72 666,38C615,3 557,-14 494,-14C387,-14 297,31 222,120C147,209 109,327 109,474C109,633 157,759 253,854C328,928 415,965 513,965C573,965 627,950 675,920C722,890 764,845 799,784l0,529C799,1341 788,1363 767,1380C745,1396 711,1404 665,1404l-67,0M540,882C468,882 411,852 369,793C326,734 305,634 305,493C305,340 327,233 370,171C413,108 469,77 537,77C610,77 672,112 724,182C775,251 801,353 801,487C801,614 773,713 718,786C670,850 611,882 540,882z"
   id="glyph345" />
<glyph
   unicode="e"
   horiz-adv-x="1024"
   d="M946,462l-671,0C278,319 305,219 355,160C412,94 485,61 574,61C705,61 810,135 889,284l65,-28C857,67 716,-28 532,-28C407,-28 301,17 216,108C130,199 87,315 87,456C87,608 129,731 214,825C298,918 402,965 525,965C616,965 694,942 760,895C826,848 876,781 909,694C932,633 945,555 946,462M275,533l406,0C705,533 724,541 737,558C750,574 757,602 757,641C757,714 734,777 689,828C643,879 589,905 527,905C458,905 399,874 351,812C302,750 277,657 275,533z"
   id="glyph347" />
<glyph
   unicode="f"
   horiz-adv-x="682"
   d="M387,937l234,0l0,-87l-234,0l0,-684C387,135 394,113 409,100C429,83 457,75 493,75l128,0l0,-75l-574,0l0,75l79,0C161,75 186,81 200,93C214,105 221,124 221,149l0,701l-162,0l0,87l162,0l0,70C221,1172 255,1299 324,1386C393,1473 478,1516 579,1516C654,1516 713,1498 756,1461C798,1424 819,1376 819,1317C819,1278 809,1248 789,1226C768,1203 742,1192 711,1192C683,1192 660,1201 642,1219C623,1237 614,1260 614,1287C614,1318 626,1344 650,1364C669,1380 679,1392 679,1400C679,1411 672,1422 657,1431C642,1440 619,1445 589,1445C532,1445 485,1420 446,1370C407,1319 387,1244 387,1145z"
   id="glyph349" />
<glyph
   unicode="g"
   horiz-adv-x="1100"
   d="M785,884C852,951 913,985 969,985C1002,985 1030,974 1052,953C1074,932 1085,906 1085,875C1085,850 1078,830 1063,814C1048,797 1030,789 1010,789C972,789 946,812 933,859C928,879 919,889 906,889C883,889 859,874 832,844C861,805 880,771 891,742C902,713 907,681 907,648C907,590 893,539 865,495C837,450 791,411 726,377C661,343 598,326 539,326l-109,0C353,326 301,318 276,302C251,285 238,261 238,229C238,203 248,183 269,169C290,155 329,148 386,148l247,5C758,153 848,132 903,91C958,49 985,-8 985,-81C985,-161 954,-228 891,-283C804,-360 673,-399 500,-399C357,-399 250,-373 181,-320C126,-279 99,-232 99,-181C99,-142 117,-106 152,-73C187,-40 245,-16 328,0C262,16 212,40 179,71C146,102 129,140 129,186C129,229 143,266 170,298C197,329 243,356 310,379C253,410 211,448 182,493C153,537 139,588 139,645C139,736 175,812 246,873C317,934 410,965 524,965C571,965 616,958 659,945C702,932 744,911 785,884M522,901C463,901 414,879 375,836C336,792 317,731 317,652C317,568 336,503 375,457C414,410 463,387 523,387C583,387 632,410 671,455C709,500 728,564 728,648C728,726 709,788 670,833C631,878 581,901 522,901M581,-1C458,-1 371,-18 319,-52C266,-86 240,-127 240,-175C240,-220 260,-256 299,-282C351,-317 425,-334 521,-334C636,-334 722,-315 780,-277C838,-239 867,-197 867,-150C867,-123 858,-97 840,-73C822,-50 793,-32 754,-19C715,-7 657,-1 581,-1z"
   id="glyph351" />
<glyph
   unicode="h"
   horiz-adv-x="1251"
   d="M43,1479l355,17l0,-722C447,838 500,886 557,918C614,949 674,965 737,965C797,965 851,951 899,922C936,899 968,860 995,803C1021,746 1034,679 1034,602l0,-445C1034,128 1041,108 1056,95C1071,82 1094,75 1125,75l80,0l0,-75l-506,0l0,75l56,0C798,75 827,82 844,96C860,109 868,130 868,157l0,445C868,680 849,741 812,785C774,828 726,850 667,850C621,850 578,838 539,813C500,788 466,751 439,701C412,650 398,597 398,541l0,-374C398,134 405,110 419,96C433,82 456,75 488,75l80,0l0,-75l-495,0l0,75l56,0C167,75 194,83 210,98C226,113 234,136 234,167l0,1118C234,1325 224,1355 203,1375C182,1394 151,1404 111,1404l-68,0z"
   id="glyph353" />
<glyph
   unicode="i"
   horiz-adv-x="645"
   d="M308,1496C338,1496 364,1485 387,1462C410,1439 421,1413 421,1382C421,1352 410,1326 388,1304C366,1282 340,1271 309,1271C278,1271 252,1282 230,1305C207,1327 196,1353 196,1383C196,1413 207,1439 230,1462C253,1485 279,1496 308,1496M49,937l372,11l0,-806C421,120 426,104 437,95C452,82 472,75 495,75l106,0l0,-75l-532,0l0,75l99,0C197,75 219,82 233,97C246,111 253,132 253,159l0,590C253,786 242,815 221,834C200,853 168,862 126,862l-77,0z"
   id="glyph355" />
<glyph
   unicode="j"
   horiz-adv-x="606"
   d="M319,1498C352,1498 379,1488 400,1467C421,1446 432,1419 432,1387C432,1354 421,1327 400,1306C379,1285 352,1274 320,1274C289,1274 263,1285 240,1308C217,1330 206,1356 206,1386C206,1416 217,1442 240,1465C263,1487 289,1498 319,1498M419,951l0,-896C419,-76 383,-184 312,-270C241,-356 161,-399 74,-399C30,-399 -4,-388 -28,-366C-52,-345 -64,-315 -64,-278C-64,-245 -54,-219 -35,-199C-16,-179 9,-169 38,-169C85,-169 115,-199 129,-260C134,-280 138,-292 143,-297C148,-302 155,-305 165,-305C177,-305 189,-299 200,-288C216,-271 229,-242 238,-201C250,-145 256,-90 256,-35l0,789C256,791 245,819 222,838C199,857 166,867 121,867l-85,0l0,70z"
   id="glyph357" />
<glyph
   unicode="k"
   horiz-adv-x="1214"
   d="M51,1479l358,17l0,-1023l305,265C743,764 758,787 758,806C758,823 749,836 732,845C706,858 664,866 605,867l0,70l499,0l0,-70C1005,862 930,836 878,789l-215,-191l349,-480C1033,89 1070,75 1123,75l52,0l0,-75l-512,0l0,75l51,0C752,75 778,78 791,85C804,92 810,100 810,109C810,118 807,128 800,137l-254,356l-137,-119l0,-237C409,118 415,103 428,94C446,81 471,75 503,75l65,0l0,-75l-503,0l0,75l81,0C179,75 204,82 220,96C236,110 244,129 244,152l0,1156C244,1338 234,1360 215,1374C187,1394 149,1404 102,1404l-51,0z"
   id="glyph359" />
<glyph
   unicode="l"
   horiz-adv-x="645"
   d="M420,1496l0,-1358C420,119 426,105 437,95C454,82 474,75 498,75l99,0l0,-75l-530,0l0,75l94,0C192,75 215,82 230,97C245,112 252,132 252,159l0,1140C252,1332 243,1357 225,1372C200,1393 170,1404 134,1404l-84,0l0,75z"
   id="glyph361" />
<glyph
   unicode="m"
   horiz-adv-x="1821"
   d="M125,937l268,17C408,884 417,817 422,754C473,827 523,879 574,909C625,939 680,954 741,954C806,954 859,937 901,903C943,869 975,814 998,737C1043,810 1092,864 1147,900C1202,936 1261,954 1326,954C1411,954 1475,929 1518,878C1573,811 1600,725 1600,620l0,-465C1600,127 1607,108 1621,98C1640,83 1667,75 1704,75l47,0l0,-75l-471,0l0,75l47,0C1367,75 1395,82 1411,95C1427,108 1435,128 1435,155l0,465C1435,689 1418,743 1384,781C1350,819 1305,838 1250,838C1208,838 1170,827 1136,805C1102,782 1075,750 1056,709C1027,650 1013,599 1013,558l0,-403C1013,128 1020,108 1035,95C1050,82 1072,75 1103,75l64,0l0,-75l-477,0l0,75l54,0C778,75 803,82 820,95C837,108 845,125 845,146l0,432C845,669 829,736 797,777C764,818 721,839 666,839C595,839 541,815 503,767C449,699 422,620 422,529l0,-374C422,126 428,107 441,96C459,82 487,75 525,75l48,0l0,-75l-472,0l0,75l71,0C199,75 219,82 234,95C248,108 255,125 255,146l0,614C255,794 246,819 229,836C212,853 177,863 125,868z"
   id="glyph363" />
<glyph
   unicode="n"
   horiz-adv-x="1251"
   d="M67,937l311,19C391,897 400,829 406,750C448,818 498,869 555,903C612,937 676,954 748,954C810,954 862,942 904,918C946,893 980,855 1005,802C1030,749 1043,690 1043,625l0,-456C1043,135 1051,111 1066,97C1081,82 1107,75 1143,75l66,0l0,-75l-494,0l0,75l47,0C806,75 837,82 854,96C871,110 880,131 880,159l0,401C880,647 867,712 840,754C803,814 746,844 670,844C595,844 532,814 482,753C431,692 406,613 406,516l0,-347C406,135 414,111 430,97C445,82 471,75 507,75l65,0l0,-75l-496,0l0,75l65,0C174,75 199,82 216,95C233,108 241,125 241,145l0,605C241,790 230,820 209,841C187,862 156,872 115,872l-48,0z"
   id="glyph365" />
<glyph
   unicode="o"
   horiz-adv-x="1024"
   d="M509,965C635,965 741,920 827,829C912,738 955,618 955,469C955,366 936,279 898,207C859,134 805,77 734,35C663,-7 586,-28 504,-28C383,-28 280,18 196,110C111,202 69,321 69,468C69,615 111,735 196,827C281,919 385,965 509,965M509,894C434,894 373,860 325,793C277,725 253,618 253,472C253,323 277,215 325,146C372,77 434,43 509,43C587,43 650,77 699,146C747,215 771,327 771,483C771,628 747,732 700,797C652,862 588,894 509,894z"
   id="glyph367" />
<glyph
   unicode="p"
   horiz-adv-x="1176"
   d="M363,954C378,884 386,817 389,752C435,825 483,877 534,908C585,939 640,954 700,954C764,954 825,934 884,895C942,856 989,798 1026,722C1062,646 1080,560 1080,465C1080,312 1035,188 946,92C872,12 783,-28 680,-28C621,-28 568,-13 521,17C474,47 432,92 395,151l0,-379C395,-257 402,-278 416,-290C434,-306 459,-314 491,-314l69,0l0,-71l-499,0l0,71l69,0C162,-314 186,-308 202,-295C218,-282 226,-266 226,-245l0,986C226,787 215,820 193,839C171,858 127,868 61,870l0,67M654,863C581,863 520,828 470,758C419,688 394,587 394,454C394,320 418,221 467,157C516,93 578,61 653,61C724,61 778,88 816,143C865,215 889,320 889,459C889,604 867,708 823,770C779,832 723,863 654,863z"
   id="glyph369" />
<glyph
   unicode="q"
   horiz-adv-x="1139"
   d="M840,802C874,858 912,909 953,954l35,-17C969,858 960,774 960,683l0,-901C960,-253 967,-277 981,-289C1000,-306 1029,-314 1069,-314l40,0l0,-71l-491,0l0,71l66,0C724,-314 752,-306 769,-291C786,-276 794,-251 794,-218l0,356C755,83 711,41 663,14C615,-14 563,-28 506,-28C397,-28 304,18 225,110C146,201 107,317 107,456C107,549 127,635 167,713C207,791 260,851 326,892C391,933 461,954 535,954C588,954 639,943 687,920C735,897 786,858 840,802M548,887C478,887 420,854 374,787C327,720 304,616 304,475C304,331 327,227 374,162C420,97 477,65 546,65C591,65 633,79 672,107C711,135 741,177 763,234C785,290 796,366 796,461C796,572 786,657 766,714C746,771 716,814 676,843C636,872 593,887 548,887z"
   id="glyph371" />
<glyph
   unicode="r"
   horiz-adv-x="909"
   d="M52,937l337,17l0,-379C425,700 468,794 519,858C570,922 632,954 707,954C758,954 798,939 829,908C859,877 874,835 874,783C874,741 864,708 844,685C823,662 798,650 767,650C737,650 713,660 695,680C676,700 667,727 667,761C667,783 672,804 683,823C693,840 698,851 698,854C698,864 692,869 679,869C652,869 621,853 586,821C538,776 501,715 475,637C435,516 415,419 415,346l0,-201C415,122 423,105 439,93C455,81 482,75 521,75l119,0l0,-75l-582,0l0,75l93,0C182,75 206,81 222,94C238,106 246,121 246,138l0,597C246,780 236,814 217,835C198,856 170,866 134,866l-82,0z"
   id="glyph373" />
<glyph
   unicode="s"
   horiz-adv-x="948"
   d="M179,353C220,238 268,158 322,114C375,69 441,47 520,47C593,47 649,63 688,95C727,126 746,166 746,215C746,243 739,268 725,289C710,310 690,325 665,336C640,346 574,361 468,381C367,401 296,422 256,444C216,466 185,496 163,535C140,574 129,616 129,661C129,730 152,792 198,848C257,919 340,955 447,955C528,955 604,929 673,878l66,70l41,0l26,-334l-67,0C710,709 670,777 620,819C570,860 508,881 435,881C372,881 322,866 286,835C250,804 232,766 232,721C232,682 249,649 282,623C315,596 379,575 474,560C585,541 657,526 690,513C745,493 787,462 817,421C847,379 862,328 862,268C862,185 830,115 765,58C700,1 617,-28 517,-28C424,-28 338,3 259,64l-73,-84l-53,0l-20,373z"
   id="glyph375" />
<glyph
   unicode="t"
   horiz-adv-x="797"
   d="M313,1319l68,0l0,-382l303,0l0,-92l-303,0l0,-601C381,192 393,152 418,125C443,97 474,83 512,83C557,83 596,104 628,146C660,188 679,257 684,354l67,0C747,229 719,137 666,77C613,16 545,-14 461,-14C384,-14 323,7 280,50C236,92 214,147 214,216l0,629l-163,0l0,70C125,928 181,959 220,1008C277,1082 308,1186 313,1319z"
   id="glyph377" />
<glyph
   unicode="u"
   horiz-adv-x="1251"
   d="M388,954l0,-621C388,257 407,198 446,157C484,116 533,95 594,95C669,95 732,125 785,186C837,246 863,321 863,412l0,351C863,795 852,820 829,838C806,855 761,865 696,867l0,70l329,17l0,-769C1025,150 1035,123 1055,104C1075,85 1103,75 1139,75l59,0l0,-67l-315,-8l-20,185C807,119 751,69 694,36C637,3 580,-14 522,-14C437,-14 366,14 309,71C251,127 222,222 222,356l0,407C222,799 208,826 179,845C159,858 118,866 56,867l0,70z"
   id="glyph379" />
<glyph
   unicode="v"
   horiz-adv-x="1100"
   d="M26,937l461,0l0,-68C426,868 387,862 370,853C353,843 344,829 344,811C344,796 347,782 354,767l248,-553l227,536C832,759 834,769 834,778C834,827 786,857 690,869l0,68l388,0l0,-68C1039,865 1007,854 984,837C961,820 943,796 930,767l-344,-795l-54,0l-368,817C151,818 135,839 116,851C97,862 67,868 26,869z"
   id="glyph381" />
<glyph
   unicode="w"
   horiz-adv-x="1593"
   d="M53,937l411,0l0,-69l-54,0C383,868 364,864 353,856C342,847 336,836 336,822C336,807 339,792 346,775l211,-530l183,504C715,802 692,836 673,849C654,862 620,868 571,868l0,69l452,0l0,-69l-38,0C950,868 927,864 914,855C901,846 894,833 894,817C894,805 897,791 903,775l213,-530l169,471C1296,747 1302,774 1302,796C1302,818 1293,835 1276,847C1259,859 1226,866 1178,868l0,69l365,0l0,-69C1498,861 1463,847 1440,826C1417,805 1397,772 1381,729l-272,-757l-58,0l-264,657l-236,-657l-58,0l-336,828C146,826 134,844 121,853C108,862 85,867 53,868z"
   id="glyph383" />
<glyph
   unicode="x"
   horiz-adv-x="1100"
   d="M48,937l452,0l0,-69C427,865 390,852 390,829C390,818 396,805 408,788l162,-214l158,198C739,787 745,801 745,814C745,843 705,861 624,868l0,69l395,0l0,-69C924,853 851,813 800,749l-183,-230l289,-376C925,118 946,101 969,91C992,80 1025,75 1069,75l0,-75l-479,0l0,75l34,0C659,75 685,79 702,86C713,91 718,98 718,106C718,113 712,126 699,143l-188,249l-151,-194C339,171 328,149 328,132C328,115 335,103 350,94C371,82 406,76 455,75l0,-75l-407,0l0,75C97,80 135,90 162,106C206,133 246,169 281,213l186,236l-275,356C161,845 113,866 48,868z"
   id="glyph385" />
<glyph
   unicode="y"
   horiz-adv-x="1100"
   d="M46,937l449,0l0,-68l-42,0C414,869 387,864 373,854C358,843 351,828 351,809C351,800 353,792 357,783l261,-564l194,468C826,720 833,753 833,785C833,810 823,829 804,843C785,856 746,865 688,869l0,68l390,0l0,-68C1003,862 952,828 926,768l-346,-807C521,-176 461,-270 402,-321C342,-373 278,-399 209,-399C159,-399 119,-385 89,-358C58,-331 43,-297 43,-257C43,-227 52,-202 71,-183C90,-164 113,-154 141,-154C166,-154 188,-162 205,-179C222,-196 231,-216 231,-239C231,-246 230,-256 227,-269C224,-279 223,-286 223,-291C223,-307 233,-315 254,-315C276,-315 301,-307 329,-291C356,-275 382,-249 406,-214C430,-179 472,-101 532,20l-355,763C164,810 149,830 130,843C111,856 83,864 46,869z"
   id="glyph387" />
<glyph
   unicode="z"
   horiz-adv-x="985"
   d="M151,937l743,0l0,-60l-589,-802l287,0C658,75 711,96 750,137C789,178 820,255 841,367l67,0l-22,-367l-788,0l0,69l588,797l-249,0C385,866 346,859 321,845C295,830 273,807 254,774C235,741 218,684 202,603l-74,0z"
   id="glyph389" />
<glyph
   unicode="~"
   horiz-adv-x="1241"
   d="M1115,849l53,0C1166,753 1140,678 1091,623C1041,568 979,540 905,540C871,540 835,546 797,557C759,568 669,603 526,662C425,704 352,725 309,725C210,725 149,664 126,542l-53,0C78,644 105,721 152,773C199,825 257,851 326,851C361,851 397,845 434,834C503,814 596,779 713,728C776,701 826,682 863,671C884,666 907,663 932,663C981,663 1023,679 1056,711C1089,742 1108,788 1115,849z"
   id="glyph391" />
<glyph
   unicode="é"
   horiz-adv-x="1024"
   d="M946,462l-671,0C278,319 305,219 355,160C412,94 485,61 574,61C705,61 810,135 889,284l65,-28C857,67 716,-28 532,-28C407,-28 301,17 216,108C130,199 87,315 87,456C87,608 129,731 214,825C298,918 402,965 525,965C616,965 694,942 760,895C826,848 876,781 909,694C932,633 945,555 946,462M275,533l406,0C705,533 724,541 737,558C750,574 757,602 757,641C757,714 734,777 689,828C643,879 589,905 527,905C458,905 399,874 351,812C302,750 277,657 275,533M408,1094l-25,25l171,245C601,1432 634,1473 653,1488C672,1503 691,1510 710,1510C732,1510 751,1502 768,1486C785,1469 793,1451 793,1430C793,1397 769,1362 722,1327z"
   id="glyph393" />
<glyph
   unicode="£"
   horiz-adv-x="1139"
   d="M527,746l370,0l0,-85l-352,0C553,606 557,551 557,495C557,401 543,319 514,248C649,192 754,164 829,164C867,164 898,177 923,203C947,229 966,275 979,342l68,-15C1029,209 994,120 941,61C888,2 830,-28 769,-28C729,-28 686,-18 639,2C592,22 527,64 443,128C402,76 358,37 311,11C264,-15 221,-28 181,-28C121,-28 71,-9 31,28C-9,65 -29,112 -29,168C-29,222 -9,267 30,302C69,337 121,355 184,355C236,355 314,331 419,282l1,34C420,435 394,550 343,661l-288,0l0,85l247,0C260,853 239,950 239,1035C239,1142 278,1232 356,1305C433,1377 535,1413 662,1413C761,1413 839,1387 897,1336C955,1284 984,1221 984,1146C984,1099 971,1060 945,1030C919,1000 888,985 853,985C824,985 799,996 780,1018C761,1040 751,1069 751,1104C751,1138 764,1167 791,1190C817,1213 832,1228 837,1235C840,1240 842,1245 842,1252C842,1274 827,1295 797,1314C767,1333 721,1342 660,1342C585,1342 525,1322 480,1281C435,1240 412,1189 412,1130C412,1101 415,1073 422,1045C429,1017 445,969 472,902C495,845 513,793 527,746M389,166C322,214 276,244 250,255C223,266 198,272 173,272C134,272 103,261 80,240C56,218 44,190 44,156C44,123 57,95 82,72C107,49 140,38 181,38C259,38 328,81 389,166z"
   id="glyph395" />
<glyph
   unicode="•"
   horiz-adv-x="1241"
   d="M620,998C678,998 728,977 769,936C810,895 831,845 831,787C831,729 811,679 770,638C729,597 679,576 620,576C562,576 512,597 471,638C430,679 409,729 409,787C409,846 430,896 471,937C512,978 562,998 620,998z"
   id="glyph397" />
<glyph
   unicode="®"
   horiz-adv-x="1509"
   d="M754,1413C883,1413 1003,1381 1114,1317C1225,1252 1313,1164 1378,1053C1442,941 1474,821 1474,692C1474,563 1442,443 1378,332C1313,221 1225,133 1114,69C1003,4 883,-28 754,-28C626,-28 506,4 395,69C284,133 196,221 132,332C67,443 35,563 35,692C35,821 67,941 132,1053C196,1164 284,1252 395,1317C506,1381 626,1413 754,1413M754,1350C637,1350 527,1321 426,1262C324,1203 244,1123 185,1022C126,920 97,810 97,693C97,576 126,466 185,365C244,263 324,183 426,124C527,65 637,36 754,36C871,36 981,65 1083,124C1184,183 1264,263 1323,365C1382,466 1411,576 1411,693C1411,811 1382,921 1323,1022C1264,1123 1184,1203 1083,1262C981,1321 871,1350 754,1350M356,1136l391,0C842,1136 917,1114 970,1071C1023,1028 1049,973 1049,907C1049,850 1030,803 993,766C956,729 899,701 824,683l212,-303C1061,345 1082,322 1099,311C1116,300 1135,293 1158,292l0,-34l-186,0l-298,411l-77,0l0,-289C597,346 605,323 620,311C635,298 667,292 716,292l0,-34l-372,0l0,34C377,292 400,296 414,304C427,312 437,324 444,340C448,350 450,381 450,432l0,568C450,1039 444,1065 431,1078C418,1091 393,1098 356,1099M597,713l30,0C716,713 782,730 824,763C865,796 886,841 886,898C886,952 867,998 828,1035C789,1072 741,1090 683,1090C657,1090 628,1085 597,1075z"
   id="glyph399" />
<glyph
   unicode="©"
   horiz-adv-x="1509"
   d="M754,1413C883,1413 1003,1381 1114,1317C1225,1252 1313,1164 1378,1053C1442,941 1474,821 1474,692C1474,563 1442,443 1378,332C1313,221 1225,133 1114,69C1003,4 883,-28 754,-28C626,-28 506,4 395,69C284,133 196,221 132,332C67,443 35,563 35,692C35,821 67,941 132,1053C196,1164 284,1252 395,1317C506,1381 626,1413 754,1413M754,1350C637,1350 527,1321 426,1262C324,1203 244,1123 185,1022C126,920 97,810 97,693C97,576 126,466 185,365C244,263 324,183 426,124C527,65 637,36 754,36C871,36 981,65 1083,124C1184,183 1264,263 1323,365C1382,466 1411,576 1411,693C1411,811 1382,921 1323,1022C1264,1123 1184,1203 1083,1262C981,1321 871,1350 754,1350M1110,1155l20,-283l-40,0C1042,1031 939,1111 782,1111C684,1111 606,1077 547,1009C488,941 458,841 458,709C458,574 488,471 549,402C610,333 691,298 792,298C925,298 1031,353 1110,462l38,-19C1055,306 925,237 758,237C670,237 590,257 518,297C446,336 390,391 350,462C309,532 289,608 289,691C289,820 337,929 432,1020C527,1111 646,1156 788,1156C841,1156 905,1143 982,1118C999,1113 1011,1110 1019,1110C1030,1110 1040,1113 1047,1119C1054,1124 1062,1136 1069,1155z"
   id="glyph401" />
<glyph
   unicode="™"
   horiz-adv-x="2048"
   d="M59,1479l739,0l22,-203l-35,0C778,1327 759,1364 730,1387C703,1408 655,1418 588,1418l-75,0l0,-610C513,765 520,737 534,722C548,707 577,699 620,697l0,-36l-380,0l0,36C283,700 311,709 324,725C336,740 342,775 342,830l0,588l-77,0C200,1418 154,1407 127,1385C100,1364 81,1327 72,1276l-34,0M1180,1479l277,-580l268,580l283,0l0,-37C1961,1440 1931,1432 1917,1418C1903,1403 1896,1376 1896,1335l0,-505C1896,773 1903,737 1916,722C1929,707 1960,698 2008,697l0,-36l-403,0l0,36C1645,698 1672,703 1685,710C1698,717 1708,728 1715,743C1722,758 1725,787 1725,830l0,498l-311,-667l-33,0l-312,658l0,-513C1069,764 1076,735 1091,720C1105,705 1129,697 1164,697l36,0l0,-36l-310,0l0,36C938,698 969,706 984,721C998,736 1005,768 1005,817l0,511C1005,1375 998,1406 984,1420C969,1434 938,1441 890,1442l0,37z"
   id="glyph403" />
<glyph
   unicode=" "
   horiz-adv-x="588"
   id="glyph405" />
<glyph
   unicode="“"
   horiz-adv-x="797"
   d="M327,1521l32,-42C293,1432 245,1385 214,1338C183,1291 167,1251 167,1217C167,1194 175,1183 191,1183l10,1C217,1188 230,1190 241,1190C270,1190 296,1179 317,1158C338,1136 348,1109 348,1077C348,1042 337,1012 315,987C292,962 266,949 237,949C194,949 157,967 124,1004C91,1040 75,1087 75,1145C75,1284 159,1410 327,1521M737,1521l33,-42C704,1432 656,1385 625,1338C594,1291 578,1251 578,1217C578,1194 586,1183 601,1183l10,1C628,1188 641,1190 651,1190C681,1190 707,1179 728,1158C749,1136 759,1109 759,1077C759,1042 748,1012 725,987C702,962 677,949 648,949C605,949 567,967 535,1004C502,1040 486,1087 486,1145C486,1284 570,1410 737,1521z"
   id="glyph407" />
<glyph
   unicode="”"
   horiz-adv-x="797"
   d="M45,943l-32,45C79,1035 128,1082 159,1129C190,1175 205,1215 205,1248C205,1259 203,1268 200,1274C196,1279 190,1282 182,1282l-10,-2C155,1276 142,1274 132,1274C102,1274 77,1285 56,1307C35,1328 24,1354 24,1385C24,1419 35,1448 58,1473C80,1498 106,1510 135,1510C178,1510 215,1492 248,1456C281,1420 297,1374 297,1317C297,1178 213,1054 45,943M456,943l-32,45C490,1035 539,1082 570,1129C601,1175 616,1214 616,1247C616,1259 614,1268 610,1274C606,1279 600,1282 592,1282l-10,-2C566,1276 553,1274 542,1274C513,1274 488,1285 467,1306C446,1327 435,1354 435,1385C435,1419 446,1448 469,1473C491,1498 517,1510 546,1510C589,1510 626,1492 659,1456C692,1420 708,1374 708,1317C708,1178 624,1053 456,943z"
   id="glyph409" />
<glyph
   unicode="‘"
   horiz-adv-x="418"
   d="M326,1521l32,-42C292,1432 244,1385 213,1338C182,1291 166,1251 166,1217C166,1194 174,1183 190,1183l10,1C216,1188 229,1190 240,1190C269,1190 295,1179 316,1158C337,1136 347,1109 347,1077C347,1042 336,1012 314,987C291,962 265,949 236,949C193,949 156,967 123,1004C90,1040 74,1087 74,1145C74,1284 158,1410 326,1521z"
   id="glyph411" />
<glyph
   unicode="’"
   horiz-adv-x="418"
   d="M95,943l-32,45C129,1035 178,1082 209,1129C240,1175 255,1215 255,1248C255,1259 253,1268 250,1274C246,1279 240,1282 232,1282l-10,-2C206,1276 192,1274 181,1274C152,1274 127,1285 106,1307C85,1328 74,1354 74,1385C74,1419 85,1448 108,1473C130,1498 156,1510 185,1510C228,1510 265,1492 298,1456C331,1420 347,1374 347,1317C347,1250 328,1186 290,1125C251,1064 186,1003 95,943z"
   id="glyph413" />
<glyph
   unicode="€"
   horiz-adv-x="1139"
   d="M158,842C185,1023 243,1163 333,1263C423,1363 535,1413 668,1413C719,1413 770,1402 820,1379C870,1356 909,1328 936,1296l47,113l57,0l23,-432l-62,0C926,1220 817,1341 676,1341C496,1341 395,1175 373,842l405,0l-45,-88l-364,0C368,736 367,707 367,666l0,-29l411,0l-45,-88l-364,0C388,217 495,51 690,51C775,51 843,76 894,127C945,178 983,260 1008,373l65,0C1050,236 1005,135 940,70C875,5 785,-27 670,-27C525,-27 407,23 316,123C225,223 171,365 154,549l-142,0l41,88l94,0l0,29C147,707 148,736 150,754l-138,0l41,88z"
   id="glyph415" />
</font>
</defs>
</svg>
